&title=Avant Raze
&artist=Sampling Masters MEGA
&first=0
&lv_5=13+
&des_5=WYBXXJ
&inote_5=
(200){4},,,,3h[8:1]/5h[8:1],
4h[8:1]/6h[8:1],3h[8:1]/5h[8:1],4h[8:1]/6h[8:1],
3h[8:1]/5h[8:1],4h[8:1]/6h[8:1],3h[8:1]/5h[8:1],{8}4/6,5/3,
{4}4h[8:1]/2h[8:1],5h[8:1]/7h[8:1],1h[8:1]/3h[8:1],6h[8:1]/8h[8:1],
4h[8:1]/5h[8:1],3h[8:1]/6h[8:1],2h[8:1]/7-4[8:1],{8}1,1,
{4}2b-5[8:1],{8}8,8,{4}1/7-4[8:1],{8}3,2,
1>4[8:1],8,{4}7h[4:1],{8}5-2[8:1],8-4[8:1],5,8,
{4}1h[4:5],2,,3,
,4,{8}2/4,5,6/4,7,
8-4[8:1],4-7[8:1],8,3h[4:1],,,7-3[8:1],3-6[8:1],
7,2h[4:1],,,6-1[8:1],1-7[8:1],6,2h[2:1],
,1,8,7h[4:1],2,1h[4:1],6,5h[4:1],
2,3h[4:1],6,7,2,8,1,5,
{4}2/4b-7[8:1],{8}1,1,{4}8/2-5[8:1],{8}6,7,
8<5[8:1],1,{4}2h[4:1],{8}4-7[8:1],1-5[8:1],4,1,
{4}8h[4:5],7,,6,
,5,{8}5/8,7,3/6,2,
1-5[8:1],5-2[8:1],1,6h[4:1],,,2-6[8:1],6-3[8:1],
2,7h[4:1],,,3-8[8:1],8-2[8:1],3,7h[2:1],
,8,1,2h[4:1],7,8h[4:1],3,4h[4:1],
7,6h[4:1],3,2,1/8,2/7,{16}4,5,{8}4,
{1}B7/E7/B6/B2/B3/E3/Cfh[4:3],
{4}2b-4[8:1],{8}1,1-5[8:1],,8,{4}8>5[2:1],
6h[8:1],7h[8:1],8h[8:1],7/1,
6-1[8:1],{8}2,3,{4}4-1[8:1],5,
{8}7,8/6,{4}1/5,{8}2,1/3,{4}8/4,
7b-5[8:1],{8}8,8-4[8:1],,1,{4}1<4[2:1],
3h[8:1],2h[8:1],{16}1,,,2,,,{8}3,
{4}4>1[8:1],7<4[8:1],2<7[8:1],5h[4:1],
{8}3,3-8[8:1],,7,{4}7-4[8:1],1,
{8}8b/3b,8h[8:1]/3h[8:1],,6h[8:1]/1h[8:1],,3h[8:1]/8h[8:1],,2/6,
1-5[8:1],1,7,7,8-4[8:1],8,2,2,
1/6,1h[8:1]/6h[8:1],,3h[8:1]/8h[8:1],,6h[8:1]/1h[8:1],,7/3,
8-4[8:1],8,1,2,3,4,5,6,
7-2[8:1],7,3-6[8:1],3,7-2[8:1],7,3-6[8:1],3,
8-4[8:1],8,1,1,2-5[8:1],2,8,8,
7-4[8:1],7,3-8[8:1],3,7-4[8:1],7,3-8[8:1],3,
5,5,5,5,{4}3b/7b,{16}1,2,3,4,
{4}7b/5-1[8:1],{8}8,8-6[8:1],,4,{4}4<2[2:1],
{2}7h[8:3],{16}6,,,6,,,{8}6,
{4}4/5-7[8:1],5/3-1[8:1],3/8-4[8:1],8/2h[4:1],
5-8[8:1]*-2[8:1],5,{16}1,,,1,,,{8}1,
{4}2b/4-8[8:1],{8}1,1-3[8:1],,5,{4}5>7[2:1],
{2}2h[8:3],{16}3,,,3,,,{8}3,
{4}4-1[8:1],4/6-3[8:1],6/2-7[8:1],2/8>6[8:3],
{2}3h[4:1],{12}1,3,2,8,6,7,
{8}1b>4[8:1],5,1<6[8:1],5,1-4[8:1],5,1-6[8:1],5,
1>4[8:1],5,1<6[8:1],5,1-5[8:1],5,1,6,
8<5[8:1],4,8>3[8:1],4,8-5[8:1],4,8-3[8:1],4,
8<5[8:1],4,8>3[8:1],4,8-4[8:1],4,8,3,
2,1,8/7,6,5/4,3,2/1,8,
7-2[8:1],7,3-6[8:1],3,8-5[8:1],8,4,3,
2,1,8/7,6,5/4,3,2/1,8,
7-4[8:1],7,3-8[8:1],3,6-1[8:1],6,2-5[8:1],2,
{1}8bh[4:3],
2bh[4:3]/6bh[4:3],
{2}5<8[4:1],1>4[4:1],
{4}5,6,7,8,
7>5[1:1],{8},,,,5,5,
{4}5pp2[1:1],{8},,,,2,2,
{2}2<7[4:1],4-1[8:1],
{4}8<5[8:1],2h[4:1],{16}7,8,7,8,{4}7b,
{8}1b/8b,2,1/8,7,1/8,2,1/8,7,
1/8,2,3/4,2,1/8,7,6/5,7,
1/8,2,2/8,7,7/1,2,2/8,7,
7/1,2,8/3,7,6/1,5,4,3,
2b/8b,3,1/7,6,8/2,3,1/7,6,
8/2,3,4/5,6,7/1,6,5/4,3,
7b/2b-5[8:1],7,7,7,7/1b-5[8:1],7,7,7,
{4}8b-4[8:1],8b>3[8:1]*<5[8:1],8bw4[8:1],8b,
{1}1bpp4[4:3],
8qq5[4:3],
{8}1,2h[4:3],,,8,7h[4:1],,,{4}4-8[8:1]/5-1[8:1],
4/5,{8}2/7,6/3,{4}5/4,
{8}8<6[8:1],2,8-4[8:1],2,8<5[8:1],2,8,2,
1>3[8:1],7,1-5[8:1],7,1>4[8:1],7,1,7,
8,7/1,6/2,5/3,1,2/8,3/7,4/6,
{12}7,5,6,2,4,3,8,6,7,1,3,2,
{1}C,
{4},,,4b/5b,
{8}1b-6[8:1],8,1,2,5-8[8:1],7,5,4,
1-6[8:1],8,1,2,5-8[8:1],7,5,4,
1-4[8:1],5,1-5[8:1],6,1-6[8:1],7,1,8,
5-1[8:1],5,{4}7b-3[8:1],2b,1b/8b,
{8}8b-3[8:1],1,8,7,4-1[8:1],2,4,5,
8-3[8:1],1,8,7,4-1[8:1],2,4,5,
8-5[8:1],4,8-4[8:1],3,8-3[8:1],2,8,1,
4-8[8:1],4,2-6[8:1],2,{4}5,8b/1b,
5h[4:1],{8}4,4h[8:1],3,3h[8:1],2,2h[8:1],
1<6[8:1],3,1-5[8:1],3,1<6[8:1],3,1,3,
{4}4h[4:1],{8}5,5h[8:1],6,6h[8:1],7,7h[8:1],
8>3[8:1],6,8-4[8:1],6,8>3[8:1],6,{4}8,
6h[4:1],{8}5,7h[8:1],4,8h[8:1],3,1h[8:1],
2>5[8:1],8,2-6[8:1],8,2>5[8:1],8,2,8,
{4}8h[4:1],{8}5,7h[8:1],4,6h[8:1],3,5h[8:1],
{6}2,3/4,4/5,7/3,6/5,5/4,
{4}1b/8b-4[8:1],{8}3-8[8:1],3,7-4[8:1],7,3>8[8:1],3,
7<4[8:1],7,3,3,2/1,3/8,7/4,5/6,
{4}2b-7[8:1],{8}6-3[8:1],6,2-7[8:1],2,6,6,
{12}4,3,2,8,7,6,1,2,3,5,6,7,
{4}8b/1b-5[8:1],{8}6-1[8:1],6,2-5[8:1],2,6<1[8:1],6,
2>5[8:1],2,6,6,7/8,6/1,2/5,4/3,
{4}7b-2[8:1],{8}3-6[8:1],3,7-2[8:1],7,3,3,
{6}5/4,7/5,8/1,2/4,4/5,1/8,
{1}1b>4qq1[4:7]/8b<5pp8[4:7],
E
