&title=ヒロイン育成計画
&artist=Poppin'Party
&first=0
&des=DJL2374
&lv_5=13+
&des_5=DJL2374
&inote_5=
(180){4},,,,,,5/4-2[8:1],
4,
5,{8}4,4-2[8:1],,5,{4}5-7[8:1],
{8}2-7[8:1],2,6-3[8:1],6,,1-4[8:1],{4}5-8[8:1],
5,{8}3-6[8:1],7-2[8:1],,7,{4}4-1[8:1],
{8}4,6,7/4,3/8-3[8:1],,8,{4}4-7[8:1],
{8}4,8-5[8:1],1-4[8:1],8,1,6<1[8:1],7,6b/5>2[8:1],
4,5,8,5/7-3[8:1],,7/4-6[8:1],4,4,
,4bx/7bx,4b/7b,4b/7b,3b/8b,3b/8b,1b/2b,1b/2b,
,7/3,3-8[12:1]/7-4[12:1],7/3,{4}7/3s7[8:1],3bx,
{8}5/3,5,2,1h[4:1]/4-7[8:1],5,4,2,{24}3,4,{6},{8}7-4[8:1],
8,7-3[8:1],,7/2-5[8:1],1,2-6[8:1],
,7-1[8:1]/2-4[8:1],8,7/2-6[8:1],,8-4[8:1],7,8,
3,2,1/7,6h[24:1]/2h[24:1],,2,2-4[8:1],1-7[8:1],
2-6[8:1],1-5[8:1],2,1,,4,3/7,{24}2/6,1/5,{6},{8}2/6-2[8:1],
3,6/2,,1-5[8:1],5,1,
,1,5,1,{16}8/2-6[8:1],3/7,{8}4/6-4[8:1],2,7,
,7x/2x,7x/2x,7x/2x,{4}7bx-3[12:1]/2bx-6[12:1],7bx/2bx,
{8}7-5[8:1],4-8[8:1],7,4-7[8:1],,4/2-5[8:1],,2/8,
8,8-4[8:1],7/1,8<5[8:1]*>3[8:1],,8,,6,
2-4[8:1],5-1[8:1],2,5-2[8:1],,5/7-4[8:1],,7/1,
1,1-5[8:1],2/8,1<6[8:1]*>4[8:1],,1,,7/5,
6,5/3-8[8:1],4,3/7-4[8:1],,7,,5/1,
6,6/2,2,3/7,7,4/8,4,5,
4-2[8:1],6-8[8:1],4,6,,6,3,7,
{4}2b-5[8:1],2b/4b-7[8:1],4b,{8}1/6,{16}2,5,
{8}2,4/3,5-2[8:1],2,5,1-4[8:1],8-3[8:1],1,
8,5-2[8:1],5,5/1-6[8:1],,1/3-8[8:1],4,3,
7-3[8:1],3-5[8:1],{4}7/2-6[8:1],{8}2,7-3[8:1],8-4[8:1],7<2[16:3],
8,7,{4}1h[8:1],{8},8,7/4,3,
6/2,5,4,3/6,4,5,7/3,4,
{4}7V53[6:1]/3V17[6:1],7>5[4:1],4x,{8}6,6,
5/3,5,5/2,6/3,7/4,8/5h[4:1],{4}1-6[8:1],
1b/5b-2[8:1],5bxw1[8:1],5bx,6/3V15[4:1],
3x/5>2[8:1],7V15[4:1],7x/5<8[8:1],2v4[4:1],
2x/4>8[6:1],7v5[4:1],7/5<1[6:1],4-8[4:1],
4/8x-6[6:1],5-1[4:1],5/1x-3[6:1],4x-8[12:7]*-8[12:7],
5x,4-8[12:1],4,5,
5,{12}5/2x,3/6x,7/4x,{4}8x/5V31[4:1],1V75[4:1],
{2}5-1[6:1],{16}2/8-4[8:1],7/3,{8}6/4-6[8:1],8,3,
{4}2,{12}5/1,5/1,5/1,{4}5-7[8:1]/1-3[8:1],5/1,
{2}4/8,{4}3/7-4[8:1],7/3-8[8:1],
{8}3,6,4-1[8:1],6,4,5,6<1[8:1],5-2[8:1],
,5,7-4[8:1],8-3[8:1],,8-5[8:1],7,8,
,1>4[8:1],2,1-5[8:1],,1,4-2[8:1],4-6[8:1],
4x-1[8:1],4x-7[8:1],4x,4x,,4,{4}4b,
{8}2/8-4[8:1],7,8/3-6[8:1],2,3/7-4[8:1],8,7/2-5[8:1],1,
,6,7,8,,2/8-3[8:1],7/1,6/8,
,5/1,5/1,5/1,{16}6/2,7/3,8/4,1/5,{4}6h[8:1]/2h[8:1],
{8},3/4,1-5[8:1]/8-4[8:1],6/5,{4}8/1,6/3,
{8}4/6<1[8:1],7,6/4-8[8:1],3,4/6-1[8:1],7,6/3>8[8:1],4-7[8:1],
,4,2-5[8:1],1-6[8:1],,1-4[8:1],2,1,
,8<5[8:1],7,8-4[8:1],,8,5-7[8:1],5-3[8:1],
5x-8[8:1],5x-2[8:1],5x,5x,,5,{4}5b,
{8}1,2/7,3,7/4,6,5/3-1[8:1],6,3/7-5[8:1],
,7/4-8[8:1],4,4/7-3[8:1],,1/7-4[8:1],1,7/1-3[8:1],
,1/6,7,4h[8:1]/8<5[8:1],,{16}3/8-4[8:1],2,{8}1,8,
,2/6-8[8:1],5/3-1[8:1],6/4,{4}3,5/4,
{8},8/1,7/3,5/4,6/8,3/1,7/2,4/5,
,4/2,1-3[8:1]/8-4[8:1],7/5,{4}8/1,5b,
{8}1/8-4[8:1],7,8/2-5[8:1],1,2/7<4[8:1],8,7/1-5[8:1],{24}2,1,{6},{8}8w4[8:1],
7/1,8,,8/1-5[8:1],2,1/6-8[8:1],
7,6/2-4[8:1],4-1[8:1],2/7-5[8:1],6,7,4-8[8:1],3,
4/6-1[8:1],5,6/3>8[8:1],{24}4,3,,{8}5-1[8:1],4-8[8:1],5/3,4,
7-1[8:1],6,7/2-4[8:1],3,7/2,6,6,{24}5/7-1[8:1],5,{6},{8}7-5[8:1]/2-4[8:1],
3,2/7,,8/1,6/2h[4:1],5<8[8:1],
,{16}2/5-1[8:1],3,{8}4,{16}1/5,8,{8}7,6h[8:1],2,5/2,
,8/1,7/5,2/4,{4}8-4[16:1]/1-5[16:1],8b/1b,
{8},8,4/3,1,5/6,7-4[16:1]/3-8[16:1],6/2,7/3,
,7/3b,4/8b,1/5b,{4}6/2bw6[8:1]*-6[8:1],2b,
E
