&title=Disruptor Array
&artist=Akira Complex/kiraku
&first=0.016
&des=flawi
&lv_5=14+
&des_5=flawi
&inote_5=
(230){4},,,,,,,,5/6,
5,5/6,5,
5/7,5,5/7,5,
5/6h[4:1],5,5/6h[4:1],5,
5/7h[4:1],5,{2}8<5[8:1],
{4}4/3,4,4/3,4,
4/2,4,4/2,4,
4/3h[4:1],4,4/2h[4:1],5h[6:1],
{12}E4,E3,E2,E6,E7,E8,{2}1x-5[8:1],
{4}7x/4x,7h[4:1]/5h[8:1],5,6/4h[8:1],
{8}7,7,5,5,{4}6-4[8:1],3,
{16}2xh[8:1],,,5xh[8:1]/3xh[8:1],,,{8}4xh[8:1]/6xh[8:1],,,7,7xh[8:1],
{16},8xh[8:1]/6xh[8:1],,,5xh[8:1]/1xh[8:1],,,4x-6[8:1]/2x-5[8:1],,,,,,,,,{4}4h[4:1]/7h[8:1],
{8}6,5,{4}7h[8:1],{8}4,6h[8:1],
5,7,4,4,{4}6-8[8:1]*-4[8:1],6,
{16}E2,E3,E4,E5,E1,E8,E7,E6,1,2,3,4,8,7,6,5,
{12}1x,2x,3x,7x,6x,5x,{4}1xw5b[8:1],1bx,
{16}7x/3x,,,6,{8}4h[4:1],7,{16}7,,,5,{8}6h[4:1],4,
{16}4,,,5,{8}3h[4:1],4,{16}4,,,2,{8}5h[4:1],3,
{16}3,,,6,{8}4h[4:1],7,{16}7,,,5,{8}6h[4:1],4,
{16}4,,,3,{8}5,2,{4}7/1h[4:1],8x,
{16}7/1,,,8,{8}2h[4:1],7,{16}7,,,1,{8}6h[4:1],8,
{16}8,,,7,{8}1h[4:1],6,{16}6,,,2,{8}7h[4:1],3,
{4}3-5[8:1],8-6[8:1],1,{8}2,2,
{12}5x,3x,6x,1x,4x,2x,{4}5x-8[8:1]*-2[8:1],5x,
{16}7x/1x,,,2,{8}6h[4:1],3,{16}4,,,5,{8}3h[4:1],6,
{16}7,,,4,{8}6h[4:1],3,{16}4,,,6,{8}5,7/4,
{16}8xh[8:1]/5xh[8:1],,,7xh[8:1]/4xh[8:1],,,{8}6x/3x,,5/2,{16}4xh[8:1]/1xh[8:1],,,5xh[8:1]/2xh[8:1],
,,{8}6x/3x,,7/4,{4}7x-5[8:1]/4x-8[8:1],7x/4x,
{1}1x>8[2:3],
{4},,,,7x/5x,
7/5,6x/4x,6/4,
{8}3,3,5,5,{4}1-5b[8:1],{64}1,Cf,,,,,,,,,,,,,,,{8}7h[8:13],
,,C,,,{4}E8,
E1,{8}A3,D4,,E5/B4,,,3h[4:7]/B7,
,,C,,,{4}B4,
B6,{8}6,6x,,4,{4}4x,
5xh[4:7],{8}E2,B2,,,{4}B4/E5,
B6/B7,{8}A1,A2,{4}A3,C,
{8}4,4,6,6,5,5,7,7,
{4}Ch[2:1],,,3-8[8:1]/7-4[8:1],
{64}7x/3x,Cf,{4},{16},,,{32},{4}2xV46[4:1],6V82[4:1],
8,{8}5V73[8:3],5,{2}1h[8:5],
{8},5,{4}5V31[4:1],1V75[4:1],5,
{8}3,3,4,4,{4}2-5[8:1],6,
{8},7,{4}7V53[4:1],3V17[4:1],1,
4,{8}5,5,{4}7h[4:1],4-2[8:1]*-1[8:1],
4b-7[8:1]*-6[8:1],4b-8[8:1],4b,{16}7,1,7,1,
{8}7,3x/B7f,,5x/B1f,,4x/Cf,,5/3,
{4}6x/2x,6/2,8x/7x-4[8:1],{8}1,1x-5[8:1],
,6,{4}6x-2[8:1],{8}4,4x,,3,
8/2,7/3,{4}6/4,5x/3x-8[8:1],{8}7,7x-4[8:1],
,1,{4}1x-5[8:1],{8}6,6x<1[8:1],,3,
,4x,{32}A1/4x<4b[4:5],B1,Cf,B5,{8}A5,{1},{4},,{16}7/5,
,,6/4,,,{8}5/3,{16}5/3,,,4/2,,,{8}5/1,
{16}1,2,3,4,8,7,6,5,8-4[8:1],1,2,3,{4}4x/8x,
{8}3,3h[8:3],{4}5,{2}7v4[8:1],
{4}E3f/B3,B8f/E1,B6f/E7,B4f/E5,
{8}7,7,{4}5>7[8:3],{2}5h[4:1],
{16}4/6,,,2/6,,,{8}8/6,{2}8-4[8:1],
{4}5x/3xh[16:3],{8}5,3,{4}2x/4xh[16:3],{8}3,5,
{4}6x/3xh[16:3],{8}6,4,{4}4x/7xh[16:3],{8}5,6,
4,4,7,7,3/7,3,8/3,8,
{16}8/2,3,4,5,1,8,7,6,4,3,2,1,5-1b[8:1],6,7,8,
{32}5x/1x>8[2:7],Cf,{4},,,{16},,,{1}Ch[4:3],
,Ch[4:3],
4x/5x<4[2:7],
Ch[4:3],
,Ch[4:3],
(240){4}6x/3x,{8}6,5,7,7,{4}4,
6/3,{8}7,7/4,,8,{4}8/5,
7x/4x,{8}4,6,3,3,{4}5,
3/6,{8}2x,2/5,,1,{4}1/4,
(250)2x/5x,{8}3,4,3,5,{4}5,
6/4,{8}7,7/5,,4,{4}4/6,
7x/3x,{8}5,6,5,7,{4}7,
{8}1,1>5[8:3]*<5b[8:3],1,1,,,,,(260){4}6b/4b,
{8}6,6,5,5,{4}7,
(270){8}4,4h[4:1],,6,{4}6,5/3,
(280){8}1,1h[4:1],,4,4,2,{4}2,
(290){8}5,3,5,3,4,2,{4}2,
(300){8}7,7h[8:3],,4,{4}4,7,
(310){8}5,8,5,7,5,8,{4}4,
(320){8}7,7h[4:1],,1,{4}1h[4:1],4,
(330){8}2h[8:1],4h[8:1],2h[8:1],4h[8:1],{2}B1f/A1/D2/E2,
(340){4}5x/3x,{8}2,2,{4}4,3/5,
(350)4x/6x,{8}7,7,{4}5,6/4,
(360)7x/3x,{8}2,8,{4}2,7/1,
(370)6x/2x,{8}5,3,{4}5,3,
(380)2b/4b,{8}3,5,{4}3,6,
(390)7b/5b,{8}6,5,{4}7,4,
(400)4b/8h,3b/7h,2b/6h,1b/5h,
{8}1b,5,1b,5,{16}1b,2x,3x,4x,5x,6x,7x,8x,
(230){1}1bxh[2:3]/5bxh[2:3],
{8},,,,,,,,6/4,
6,5/3,3,6/2,6,5/1,1,
{16}5,6,7,8,4,3,2,1,4,5,6,7,1,2,3,4,
{1}8bw4b[1:3],
{4},,,,,,,,,,6-3[8:1]/2-7b[8:1],
6b/2b,
{16}5bx/1bx,,,4,{8}2>5[8:1],6,2-6[8:1],8,2,7,
{16}8,,,4,{8}7<4[8:1],3,7-3[8:1],1,7,2,
{4}1b-4[8:1],8/1b-6b[8:1],1b/2,{8}5/3,6b/2bh[4:1],
{32},,,,E7,B7,B8,E1,,,E3,B3,B4,E5,,,A7,D7,A6,D6,,,A3,D3,A2,D2,,,{8}5,
{16}5x/1x,,,4,{8}2-6[8:1],2,8<5[8:1],8,{16}4,3,2,1,
8,,,8,{8}6-2[8:1],6,1>4[8:1],1,{16}5,6,7,8,
{4}1-6[8:1],{8}1/5-1b[8:1],4,5/7-4[8:1],8,{4}7/2,
{8}1,2/5,3/6,4/7,{4}8x-5[8:1]*-3[8:1],8bx,
{16}4,,,3,{8}7-3[8:1],7,1>4b[8:1],1,{16}5,6,7,8,
1,,,1,{8}2-6[8:1],2,8<5b[8:1],8,{16}4,3,2,1,
{4}8bx/4bx,{8}2/6,3,7b/4b,6,3/5,2,
6/1,2bh[8:1]/7h[8:1],{16},3h[8:1]/8bh[8:1],,,7h[8:1]/4bh[8:1],,,6bh[8:1]/2h[8:1],,,{8}5x/1x,
{1}1bxp7>2[4:13]`5bxp3<6b[4:13],
{4},,,,,,,,,,,,6/E1,
6/E2,6/E3,6/E4,
3/A8,3/A7,3/A6,3/A5,
{16}4h[8:1]/2h[8:1],,,2h[8:1]/5h[8:1],,,{8}2h[8:1]/6h[8:1],{16},2h[8:1]/7h[8:1],,,{4}8h[8:1]/2h[8:1],
{16}2,8,2,8,1s5b[4:1],7,1,7,,,,,,,,,{1}6b<1-5pp7[4:5]/4b>1-5qq3b[4:5],
{16},,,,,,,,,,,,,,,,4/6,
,,5,{8}7,8/4,1-5[8:1],8,1/3-8[8:1],2,
3/7-3b[8:1],6,7/1,8,{16}1,2,3,4,{4}7x/5x,
{16}6x/4x>1[8:1],,,5,{8}4,6,7-3[8:1],8-4b[8:1],7,8,
{16}5x<8[8:1],,,3,{8}5,3,2-6[8:1],1-5b[8:1],2,1,
{4}3bx-7[8:1],3b/4b-8[8:1],4b/5b-1b[8:1],{8}5b/2b,2b,
{16},,8,3bxh[8:1],,7,{8}4bxh[8:1],{16}6,3bxh[8:1],,5,{8}2bxh[8:1],6,
1>4[8:1],{16}8,7,{8}1-6b[8:1],6,1,5,{24}1,2,3,4/7x,,,{8}8<5[8:1],
{16}1,2,{8}8-3b[8:1],3,8,4,{24}8,7,6,5/3,,,{8}2x/4x,
4x,{16}3,5,{8}3,6x/4x,4x,{16}7,5,{8}7,
{16}4,3,2,1,5,6,7,8,{2}1xw5[8:1],
{8}7x/3x,{16}4,6,{8}4-8[8:1],5,4-2b[8:1],7,4,6,
6x/1x,{16}7,8,{8}7-5[8:1],1,7-3b[8:1],2,7,1,
1xh,{16}2,4,{8}3,5,5xh,{16}6,4,{8}7,8x/3x,
{16}2,1,2,1,3,8,3,8,{24}2,1,8,7,6,5,{4}4bx/8bx,
{16}6,5,7,5,{8}6h[8:1],{16}1,7,8,7,{8}1h[8:1],{16}5,2,4,2,
5,6,7,8,4,3,2,1,4,5,6,7,{8}8x/3x,3,
{16}8,2,1,3,{8}8h[8:1],{16}4,7,5,6,{8}4h[8:1],7,7,
{16}1,2,3,4,8,7,6,5,1-6b[8:1],2,3,4,{4}1x,
{16}5,7,4,6,{8}3h[8:1],{16}8,2,1,3,{8}8h[8:1],{16}5,7,5,7,
4,3,2,1,7,6,5,4,1,2,3,4,8,7,6,5,
2,4,3,4,{8}2h[8:1],{16}7,1,8,1,{8}7h[8:1],{16}4,6,5,7,
4,3,2,1,7,6,5,4,{24}1,8,7,6,5,4,{4}3bx/7bx,
{16}4,6,3,5,{8}2h[8:1],{16}7,1,6,8,{8}5h[8:1],{16}2,6,3,7,
4,3,2,1,7,6,5,4,8,1,2,3,8,7,6,5,
1,4,1,4,{8}1h[8:1],{16}6,8,7,8,{8}6h[8:1],{16}5,7,5,7,
4,3,2,1,5,6,7,8,2,1,2,1,{4}3x/8x,
{16}5b,7,4,6,{8}3h[8:1],{16}5b,4,6,4,{8}5h[8:1],{16}1b,6,8,6,
1b,2,3,4,8b,7,6,5,1b,2,3,4,1b,8,7,6,
3b,5,3,5,2b,6,2,6,1b,7,1,7,2b,8,2,8,
1,1,2,8,1,1,2,8,{24}1b,8,7,6,5,4,2-6b[8:1],1,8,7,6,5,
{32}2b,B2,Cf,B6,
E
