&title=弓弦的锻造歌
&artist=Rafutsuri × Mused
&first=-0.245
&des=操操操。!
&lv_5=14
&inote_5=(150)
{1},,,,{1}2qq5[8:7]/6h[2:1],
{4},5h[4:1]/6h[4:1],{8},7h[8:1],6<4q5[8:9],7,
{1}4h[2:1],{4},3h[4:1]/5h[4:1],{8},2h[8:1],4pp1>3[8:9],3,
{1}6h[2:1],{4},7h[4:1]/4h[4:1],{8},8h[8:1],6V48-3<7[8:9],7,
{1}3h[2:1],{4},6h[4:1]/2h[4:1],{8},1,8b/3q5[2:1],,
{4}6,6,6,{8}65,4,
{4}3V52[8:3]/6,6,6,{8}61,8,
{4}6/7>2[4:1],6,6,{8}36,3,
57,6,5,24,1h[2:1],D3,E4,C,
E6f,,2h[4:1]/6,,5>2[8:1],6,7h[4:1],,
8,,1/6h[4:1],,4q8[8:1],3,2h[4:1],,
{8}1,1,{16}2,4,3,4,{8}3-8[8:1],5,7h[4:1],,
1,1,{16}7,5,6,2,{4}4q6[4:1],,
1b-4[2:1],E8,E7,E6,{8}6h[8:1],5h[8:1],4,3h[8:1],5h[8:1],4h[8:1],3,2h[8:1],
{4}8b-5[2:1],D4,D3,D2,{8}7h[8:1],8h[8:1],6h[8:1],2-6[8:1],4-7[8:1],2,4,,
1/8-5[8:1],,4-7[8:1],,2-6[8:1],,5-2[8:1],,
7<4[8:1],7,3-7[8:1],3,8>3[8:1],8,4,4,
{16}7,5,6,5,8,4,5,4,{24}7,6,5,2,3,4,7,5,7,5,7,5,
{1}8s4[16:7]b*z4[16:7],{32}2/7s3[4:1],36,45,,{8},2,2,{16}1x,8x,7x,6x,5x-2[8:1],,7,7,
{8}5s1[4:1],6,3v6[8:1],,,,8,8,
{8}7-3[8:1]/5-2[8:1],,,,{16}E6,A6,E2,E3,{8}8x,3x,
{8}7h[8:1],5h[8:1],4h[8:1],2,{16}6,5,,3,4-1[8:1],,25,,
{8}8x,,37,3,{16}8x,1x,2x,3x,4x<7[8:1],,2,2,
{8}4V25[4:1],3,8z4[4:1],,,,1x,,
5x-1[8:1]/6x-2[8:1],,,,{16}E1,E8,E7,E6,1V75>1-5[16:11],2,3,4,{1}5xV31<6[16:7]b,
{32}2-6[8:1]/7,36,45,,{8},7,7,{16}8,1,,1,8h[4:1],,2,3,
{8}4-1[8:1],8,4<7[8:1],6,2-6[8:1],3,2/1s5[8:1],,
1x/8x,,37,2h[4:1],{16}E5,E6,E7,E8,1,2,3,4,
{8}56,7-3[8:1],8,{24}4,3,2,{16}1h[8:1],,,2h[8:1]/8h[8:1],,,1/6h[8:1],,
8w4[8:1],,17,,8,,,,3,4,,4,3h[4:1],,6,7,
{8}8-5[8:1],4,8>3[8:1],2,6-2[8:1],7,5q1[8:1]*p1[8:1]/6,,
E5/E6/B5f,,73,6h[4:1],{16}E1,E2,E3,E4,8,7,6,5,
4h[8:1]/3h[8:1],,,2h[8:1]/1h[8:1],,,8h[8:1]/7h[8:1],,,7,5,6,{4}1-6[8:1],
{16}1b/2,,,3,4<7[8:1],,2,,8>3[8:1],,2,,4,,5,,
46,,6-2[8:1],5,7-4[8:1],,6,,7,,,,8-3[8:1],,5,,
7/8b,,,6,5>2[8:1],,7,,1<6[8:1],,7,,5,,4,,
53,,2-5[8:1],8,1-6[8:1],,2,,1,,,,{8}4,3,
2b<7[8:1]/6b>3[8:1],,2-6[8:1]/6-1[8:1],,26,,48,7,
16,{16}2v3[8:1],5,3-5[12:1],,7,,8h[4:1],,,,6,,4,,
35,,2,12,,5,4,6,4,,7,78,,,{8}1,
2/8<5[8:1],8>3[8:1],8x-4[8:1],8x,8x/Cf,,,{16}3,4,
3,,6,5,6,,2,4,2,,7,5,7,,1,8,
{8}2-6[8:1],3,7-4[8:1],8,4,,,{16}6,5,
6,,3,4,3,,7,5,7,,2,4,2,,8,1,{8}6<1[8:1],5,4>1[8:1],5,8,,,{16}2,4,
3,,7,5,6,,1,3,2,,8,6,7,,4,5,
{8}3,26,15,48,3<6[8:1]/7>2[8:1]b,,3/7-3[8:1],,
7/4w8[8:1],,,,26,{16}7,5,8,,17,,2,4,3,5,4,6,5,7,
{32}1,2,3,4,5,6,7,8,16,5,4,3,2,1,8,7,{1}2pp5[2:1]/6pp5[2:1],
{4}4/6h[1:1],,{8},{32}D5,A4,D4,,{8},2,2<6[4:1],,6V41[4:1],,,,,8,
1h[1:1]/7,,,,,{32}A6,B6,B5,,{8},4,
{4}4<8[4:1],8z4[16:5],,,
{4}3h[1:1],E4,E5,E6,7h[1:1],E5,E4,E3,
1h[1:1],E1,C,E5,3V51[4:1],1s5[8:3]*z5[8:3],,,
{16}3h[8:3]/7,,,4,,,5,,2-6[8:1],,7,,1h[4:1],,,,
5h[8:3],,,8,,,7h[8:1],,5-1[8:1],,4,,2h[4:1],,,,
8h[8:3],,,3,,,3,,7-3[8:1],,4,,5h[4:1],,,,
{8}1,8,75,6,4pp6[8:1]*qq2[8:1]/2,3,,,
{4}5-8[8:1]/E3f,,2-5[8:1]*-6[8:1]/E8/A7f,,
8w4[8:1]/B3/A3/E4f,,2<6[8:1]*>6[8:1]/A6/B2/B6/Cf,,
{16}1b/8b,,2,4,3b,,6,5,7b,,3,5,1b,,8,2,7b,7,6,6,5b,5,4,4,{2}3v6[8:1],
{8}1b/8b,5b/6b,{24},E4,A3,E3,A2,D2,{32}7h[24:1],,,,,,3xh[24:1],,,,,,5xh[24:1],,,,
{16}3,4,1,,28,,{24}7,5,6,{2}5xv4[8:1],
{48}2xv5[8:1]/1-4[8:1],,,,,,{8},,,{16}78,,2,5,,6,4,,
3x/7xh[4:1],,,,{16}8,8,8,8,1>4[8:1]/7<4[8:1],,,,,,,,
6x-1[8:1]/2x-5[8:1]b,,,,,,,,{32}4xV28>1V35[4:3],,,,,,7x,6x,5xh[4:1],,,,,,,,
,,,,,,7x,6x,5x<6<7>8>1>2>3<4[16:5],,,,,,,,{16}E7,E8,E1,E2,E3,,,,
6x-1[8:1]/5x-8[8:1],,,,,,,,18,,6v3[8:1],3h[16:1],,,,,
2xh[4:1],,,,3,2,3,2,8-4[8:1],,3,,5w1[8:1],,,,
5x,,,,{24}E7,A7,,E4,E3,,{16}5pp4[16:5],,,3h[8:1],,,3,,
{8}2h[24:1],3h[24:1],4h[24:1],5h[24:1],{16}4pp5[4:1]/6,,,7h[4:1],,,,,
8xw4[8:1],,,,,,,,26,,7,5,,3,4,,
2xh[4:1]/8x,,,,1,1,1,1,8<4[8:1]/2pp4[8:1],,,,,,,,
{4}3x>6[32:7]/7x-4[8:1],3/7V13[32:7],5x-8[8:1],5,
4V63[16:3],4V28-6[8:3]/7V53V17[16:5],7x,,
{32}4x-1[8:1],3x-8[12:1],2x,,,,,,{4},{16}71,,6,4,,2,4,,
3x>8[8:1]/5x-3[12:1],,,,35,,,,{32}1,2,3,4,5,6,7,8,{4}1qq1pp1[1:2]/5,
{1}1b,,{4}6>3[2:1],,2q7[2:1],,8q1[2:1],,Ch[2:1]f,,
8h[8:1],8h[8:1],2h[8:1],2h[8:1],3h[8:1]/5h[8:1],2h[8:1]/4h[8:1],{8}35,6,4,5,
3h[4:1]/6,,8h[2:1],,1,1,{32}D1,D8,D7,D6,D5,D4,D3,D2,
{8}D1f,,E4,E5,E6,,1h[4:1],7,
5h[4:1],,{32}1b,26,37,48,,,,,{16}3>8[8:1]/7,,2,4,3,,{24}7,6,5,
{8}4-7[8:1],8,1/4-6[12:1],2,34,,{16}4,7,5,6,
{4}8-3[8:1],{8}78,,6<1[8:1]/2,{16}7,5,6,,{24}2,3,4,
{8}5p1[8:1],1,5/8>3[8:1],7,68,,{16}5,4,6,3,
{4}2<7[8:1]/7<4[8:1],2/7V13[16:3],{8}5,6-2[8:1],7,{24}4,3,2,
{8}1-5[8:1],8-6[12:1],1,8,3h[4:1],,1,2,
{16}34,,7,68,{16},4,5,3,5,,2,13,,,7,3,
{8}5-1[8:1],5,2-6[8:1],2,8b/Cf,,,{16}3,5,
4h[8:1],,6,2,4h[8:1],,2,8,4h[8:1],,6,1,4h[8:1],,3,7,
{8}5,4>1[8:1]/6,2/8<5[8:1],4,8,,,{16}6,4,
5h[8:1],,3,7,5h[8:1],,7,1,5h[8:1],,3,8,5h[8:1],,6,2,
{8}4,3/7-3[8:1],1-5[8:1]/6,7,1,,,{16}2,4,
3h[8:1],,7,4,5h[8:1],,4,6,1h[8:1],,3,2,8h[8:1],,5,7,
{8}2,34,56,78,1<6[8:1]/2>5[8:1],,1-5[8:1]/2,,
1b/4w8[8:1]/Cf,,,,{16}26,,3,4,1,,28,,7,5,6,4,5,3,4,2,{32}8,7,6,5,4,3,2,1,38,4,5,6,7,8,1,2,
{1}3h[2:1]/7pp4[8:7],
{4},4h[4:1]/3h[4:1],{8},2h[8:1],3>5p4[8:9],2,
{1}5h[2:1],{4},6h[4:1]/4h[4:1],{8},7h[8:1],5qq8<6[8:7],6,
{4}1b,1,2,2,{8}3,4b,3,,4-8[8:1]/6-4[8:1],,,,
{4}1/5b,5,6,6,{8}7,2b,7s3[4:1],,E1,,,,
E
