&title=モア!ジャンプ!モア!
&artist=ナユタン星人/MORE MORE JUMP!/初音ミク
&first=0.3
&des=Taxchan
&des_5=Taxchan
&lv_5=13+
&inote_5=(202){4},,,,{1}3h[4:3]/5h[4:3],
4h[4:3]/6h[4:3],
5h[4:3]/2h[4:3],
4h[4:3]/7h[4:3],
{4}3x/5x,3,3,3,
4/5-8[8:1],4,4/7-2[8:1],4,
8b/3b,{8}4,4,5,4,5,4,
{4}3xv8[8:1],6v1[8:1],2x>5[8:1],8h,
B2,E4,B5,{8}B6/B4,B7/B3,
,5,{4}5<8[8:1],1w5b[8:1],1b,
3b-6[8:1],7-2[8:1],3-6[8:1],7-2[8:1],
3v8[8:1],7v4[8:1],3v8[8:1],7v4[8:1],
2>5[8:1],6<1[8:1],2>5[8:1],6<1[8:1],
4-1[8:1],8-5[8:1],{8}4,3b,{4}3b,
{8}7x,7,4,4-8[8:1],,6-2[8:1],,1-5[8:1],
,7-3[8:1],,3,2,1,5,6,
8x-3[8:1]/7x-4[8:1],7x/8x,,,1x-6[8:1]/2x-5[8:1],2x/1x,,,{4}8<5[8:1],
8>3[8:1],{2}8/4w8b[8:1],
{8}6b>4[8:1],,,3,2>4[8:1],,,6,
{4}6,5,4,3,
2V46[2:1],{8}6,6,,,,,{4}B7,
B8,B1,B2,
{8}3b<5[8:1],,,6,7<5[8:1],,,3,
{4}3,4,5,6,
7V53[2:1],{8}3,3,,,,2h[4:1],
,4,4,5/3,{4}3/5>2[8:1]*<7[8:1],A5f,
{8}1bxq5[4:1],,,8,8p4[4:1],,,3,
{4}3,3/5,4/6,5/7,
8<5[4:1],{8}5p3[8:3],5,,,,,{4}E1,
E2,6/E3,6/E4,
{8}8bp4[4:1],,,1,1q5[4:1],,,6,
{4}6,B7/B8,B4/B3,B6/B5,
3h[4:1],{8}5p4[8:3],5h[4:1],,,,7,
,5/2,{4}5-1[8:1]/2-4[8:1],5x/2x-7[8:1],2x,
{8}4xh[4:1]/2xh[8:1],,,3/5,{4}3/5h[4:1],C,
{8}4h[4:1]/6h[8:1],,,5/7,{4}7/5h[4:1],C,
{2}6h[8:3]/4h[16:3],{4}5h[16:3]/3h[8:3],C,
{2}2h[16:3]/4h[8:3],{4}3/5,C/B5/B4,
3b/6b,{8}5,4,5,4,5,4,
5,5,4,4,6,6,3,3,
{4}3/7-4[8:1],7/2-5[8:1],2/7,8-6[8:1]/1-3[8:1],
8b-4[8:1]/1b-5[8:1],1b/8b,{8}3b/6b,2,2-6[8:1],6,
{4}2b/8-5[8:1]*-3[8:1],8b,2/6<2[4:1],{8}3,3h[4:1],
,1x-4[8:1],8,7,6,{16}3,4,{8}2-6[8:1],7,
{4}2b/8-5[8:1]*-3[8:1],8b,2/6<2[4:1],{8}3,3h[4:1],
,1xq5[8:1],7-4[8:1],1,7,3x,{4}3x-8[8:1],
3b/7-5[8:1],7/2-5[8:1],2/6-1[8:1],6/4,
{8}8<5[8:1]*v5[8:1],8,{4}8>3[8:1]*v3[8:1],8,{8}6,4,
7,8,1-5[8:1],2,{4}3/1b,{8}7,8,
1-5b[8:1],2,{4}3/1b,{16}6,3,6,3,7-3[8:1],4,{8}7,
{4}7b/1-4[8:1]*-6[8:1],1b,7/3>7[4:1],{8}6,6h[4:1],
,8x-5[8:1],1,2,3,{16}6,5,{8}7-3[8:1],2,
{4}7b/1-4[8:1]*-6[8:1],1b,7/3>7[4:1],{8}6,6h[4:1],
,8x-5[8:1],1-4b[8:1],8,1,6,{4}6/2-8b[8:1],
2/7-3[8:1],7/4-6[8:1],4/8-4[8:1],3/8,
{2}1w5[8:1],8w4b[8:1],
{8}2x-4[8:1],2,8-6[8:1],8,1-3[8:1],1,7-5[8:1],7,
{4}2x-6[8:1]*-7[8:1],2x<3[4:1],2x,Cf,
6b-8-5[4:1],5b-2-4[4:1],4b,1p5[8:1]*q5[8:1],
1,8p4[8:1]*q4[8:1],8,Cf,
1b-4[8:1],4b<6[8:1],6b,{8}8<4[4:1],2,
{4}8,{8}1>5[4:1],7,1,B7/B6,{4}B7f/B6,
5b-7-4[4:1],4b-1-3[4:1],3b,8qq6[8:1]*pp2[8:1],
,4qq2[8:1]*pp6[8:1],,Cf,
1b-4[8:1],4b<6[8:1],6b,4,
{8}3/7,3/7,2/8,2/8,{4}1b-4b[8:1]*-6b[8:1],1b,
3-1[8:1]*-8[8:1],3bx,6-8[8:1]*-1[8:1],6bx,
5-7[8:1]/4-7[8:1],5bx-2[8:1]/4bx-2[8:1],4bx-8[8:1]/5bx-1[8:1],4bx/5bx,
6-8[8:1]*-1[8:1],6bx,3-1[8:1]*-8[8:1],3bx,
4/5,E7/A7/A8/E1/E8f,B5/B7/B1/B3/B2/B6/Cf,B3f/B2/E4/A4/E5,
5-7[8:1]*-1[8:1],5bx,4-2[8:1]*-8[8:1],4bx,
4-2[8:1]/5-2[8:1],4bx-7[8:1]/5bx-7[8:1],5bx-1[8:1]/4bx-8[8:1],5bx/4bx,
4-2[8:1]*-8[8:1],4bx,5-7[8:1]*-1[8:1],5bx,
4/5,E7/A7/A8/E1/E8f,B5/B7/B1/B3/B2/B6/Cf,B3f/B2/E4/A4/E5,
{8}8x-3[8:1]/7x-4[8:1],7x/8x,,,1x-6[8:1]/2x-5[8:1],2x/1x,,,{4}8/A2,
7/B3,{2}6/E5,
{1}5h[4:7]/4p3V17[2:3],
,4h[4:3]/5>7p6[2:3],
{4}D5,D4,D3,D2,
{1}5h[4:7]/2q5V71[2:3],
{4},,,,6p1[2:1],
{8},,,,4,4,
,2/6,2/6,1/7,{4}7<4b[8:1]/1>4b[8:1],1/7,
2b-5[8:1],5,6-1[8:1],1,
2-4[8:1],4-1[8:1],1-5[8:1],5,
7pp4[2:1],{8}2,2,,,,,{4}4/E1,
5/E2,6/E3,7/E4,
7b-4[8:1],4,3-8[8:1],8,
7-5[8:1],5-8[8:1],8-4[8:1],4,
3/5,3/5,2/6,{8}2/6,1>4[8:1],
,6,{4}6<1[8:1],{2}1p3b[8:1]*q7b[8:1],
{8}5x/6x,5,6,4,{4}6/4h[4:1],7x,
{8}4/3,4,3,5,{4}3/5h[4:1],2x,
{16}4/2h[8:3],,,5,,,{8}6,{16}5/7h[8:3],,,4,,,{8}3,
{16}1/2h[8:3],,,8,,,{8}7,6h[8:1],4,6h[8:1],4,
3x/5x,3,4,3,{4}5/4h[4:1],6x,
{8}6/4,6,5,6,{4}4/5h[4:1],3x,
4/3h[4:1],{8}5,3,{4}6/3,4/2x,
5,1/7,1/7,{16}1,8,1,8,
{8}3x,3,1/7,3,{4}3>8[8:1],8,
{8}6,6,8/2,6,{4}6<1[8:1],1,
{16}4/7,,,6,{8}5,4,{16}2/5,,,3,{8}4,5,
{16}6-2[8:1],,,4,{8}6,3,1,1,{4}8/2,
6b/3b,{8}4,5,4,5,4,5,
4,4,5,5,3,3,6,6,
{4}6/2-5[8:1],2/7-4[8:1],7/2,8<1[4:3]/1>8[4:3],
{1}1b/8b,
3h[1:1]/Cf,
4h[1:1],
5h[1:1],
3>6[2:1],
{4}4bx/5bx,4/5,4/5,4/5,
4/5,4/5,4/5,4/5,
{8}3/7,3/7,3-8[8:1]/7-4[8:1],3/7,{4}3b/7b,{8}2/6,2/6,
2-5[8:1]/6-1[8:1],2/6,{4}2b/6b,{16}3,5,3,5,1-5[8:1],7,1,7,
{4}1b>4[8:1]*<6[8:1],1b,3/7-1[8:1],{8}7,4V25[4:1],
,5V38[4:1],6,7<4[8:1],{4}7,{8}1-5[8:1],2,
{4}3/1b>4[8:1]*<6[8:1],1b,3/7-2[8:1],{8}7,5h[4:1],
,2v4[8:1],8<5[8:1],2,8,3x,{16}3x/4x,5,6,7,
{4}1x/8x-6[8:1],6-1[8:1],1-5[8:1],4<2[4:1]*q2[4:1],
,,3-7[8:1]/5-1[8:1],3/5,
{8}8x-6[8:1],8,2-4[8:1],2,7-5[8:1],7,1-3[8:1],1,
{4}7x-3[8:1]*-2[8:1],7x>6[4:1],7x,1x-3[8:1],
1b/8-4[8:1],8b/7-5[8:1],7b/3,1p5[8:1]*q5[8:1],
1,8p4[8:1]*q4[8:1],8,7x-5[8:1],
7b/8-4[8:1],8b/1-3[8:1],1b/5,{8}8<4[4:1],2,
{4}8,{8}1>3[8:1],7,1,B7/B6,{4}B7f/B6/2x-4[8:1],
2b/1-5[8:1],1b/8-6[8:1],8b/4,1qq7[8:1]*pp3[8:1],
,5qq3[8:1]*pp7[8:1],,8x-6[8:1],
8b/1-5[8:1],1b/2-4[8:1],2b/6,3/5,
{8}4,4,4-1[8:1]*>2[8:1],4,{4}4b<6[8:1]*-7[8:1],4b,
1b-5[8:1],1b>4[8:1]*<6[8:1],1b,5x-8[8:1],
3/5-2[8:1],7/5-1b[8:1],3/5,Cf,
8b-4[8:1],8bV64[8:1]*V24[8:1],8b,{8}6x<1[8:1],5,
{4}6,{8}3>8b[8:1],4,3,6b,{4}6b/1x-7[8:1],
1b/2-6[8:1],2b/3-5[8:1],3b/7,8w4[8:1],
,1w5b[8:1],,8x-2[8:1],
8b/7-3[8:1],7b/6-4[8:1],6b/2,3x/5x,
{8}4/5,4/5,4/5,4/5,5/6,5/6,5/6,5/6,
3/4,{16}7,5,7,5,7,5,7,5,7,5,7-3b[8:1],5,7,5,
{32}7,Cf,{4},,{16},,,{4}4x/5x,
3b-8[8:1],4-7[8:1],3-8[8:1],4-7[8:1],
2-7[8:1],6-3[8:1],2-7[8:1],6-3[8:1],
8-3[8:1],7-4[8:1],8-3[8:1],7-4[8:1],
1-4[8:1],5-8[8:1],{8}3,2b,{4}2b,
{8}3x,3,8,8-4[8:1],,2-6[8:1],,5-1[8:1],
,3-7[8:1],,7,6,5,1,2,
4x-7[8:1]/3x-8[8:1],3x/4x,,,5x-2[8:1]/6x-1[8:1],6x/5x,,,{4}8x<5[8:1]*>3[8:1],
8xw4b[8:1],{2}8bx,
E
