&title=KOLD
&artist=雨漏りP(feat. A.Dokuga)
&first=-0.02
&des=韩信
&lv_5=13+
&inote_5=(148)
{1},,{16}3h[4:2],,,,,,,,4,,,34,,,5,,
{16}6h[4:2]/4,,,,,,,,5,,,4,6,,35,,
{16}2h[4:2],,,,,,,,1,,,8,2,,17,,
{16}6h[8:1]/5,,,2h[8:1]/3,,,8b<3[8:3],,,,4,,3,,2,,
{16}1-6[8:1],,,,7,,,,8h[16:3],,,5,7,,46,,
{16}3h[16:3],,,1,2,,48,,7-5[8:1]*-1[8:1],,,,,,,,
{16}2,4,3,5,4,6,3,5,2,4,1,5,{32}2,3,4,,6,,6,,
{32}3,4,5,,7,,7,,4,5,6,,8,,8,,5,6,7,8,1,2,3,4,5h[4:1]/7,,,,,,,,
{16}8b-4[8:1],,,,2/8,,,,35,,,2,4,,1,,
{16}7/8-4[8:1],,,,28,,,,35,,,2,4,,1,,
{16}7/8-4[8:1],,,,18,,2,,35,,,2,4,,1,,
{16}7h[8:1]/5,,,3h[8:1]/4,,,1b/8h[4:1],,,,{24}1,2,3,48,,,26,,,
{16}3h[8:1]/4,,7,,2h[8:1]/4,,8,,3h[8:1]/4,,6,5,7h[8:1],,1,8,
{16}3b,,,7h[8:1]/5b,,,8b/1h[8:1],,7-3[12:1],8,6,1,7>6[4:6],,,,
{8}8h[4:3],,,,,,,1h[4:2],
{16},,,,,,,,2,2,,3,3,,4,,
{16}5/6,,6,,,6,,,6,,,6,,5,6,4,
{16},,35,,4,3,,,3,,,3,,,4,2,
{16}1b,,3/8h[8:1],,,8h[8:1],,,8h[8:1],,,8h[8:1],,2,8,1,
{16}7,7,1,1,6,6,2,2,7,7,{32}3,4,5,,8,,8,,1,,1,,
{16}7,,2,6,,3,6,,4-7[32:3],6-4[16:1],,4,,,,,
{16}28,,7,3,,6,3,,5,2h[8:1],,4,2,8,8,8,
{16}1h[8:1],,7,8h[8:1],,5,4h[8:1],,7,1h[8:1],,5,3h[8:1],,7,8,
{32}6,5,4,,2,,2,,7,6,5,,3,,3,,8,7,6,,2-6[8:1],,4,,1,,5,,2b,,,,
{16}5h[4:1],,,,1,,3,4h[8:1],,3,4,2h[8:1],,1,3,,
{16}4/6-2[8:1],,7,,8,8,,,1/3h[8:1],,5,4,6h[8:1],,8,7,
{16}1,1h[16:3],,,7V53[4:1],,,,3V57[4:1],,,,8,,,,
{16}2,,8,8,1,7h[8:1],,8,8-3[8:1]/7-4[8:1],,,,78,,,,
{16}15,,2,,3/8,,6,5h[8:1],,6,5,7,5,6,4,5,
{16}3-7[8:1],,2,,1>4[8:1],1,,,1,,7h[8:1],,5,5,6,4,
{16}7,7,5,6h[8:1],,4,4,5,3,4,2,2h[8:1],,1,2,8b<3[8:3],
{16},,4,,3,,2,,1-6[8:1]*-5[8:1],,,,1b,,,,
{16}8/4h[4:1],,,,8,4,1,5h[4:1],,3,,6,5,7,4h[8:1],,
{16}1-5[8:1],,8,,7,7,,,4/6h[8:1],,3,3,6,4,7,5,
{16}8,8h[16:3],,,2V46[4:1],,,,6V48[4:1],,,,7,,,,
{16}6,,16,,2,5,,4,3-8[8:1]/4-7[8:1],,,,34,,,,
{16}15,,,25,5,,,35,5,,,46,6,,47,,
{16}48,,,38,8,,,28,8,,,17,7,,16,,
{16}25,,2,4,3,6,4,5,{32}2,3,4,,7,,7,,3,4,5,,8,,8h[16:5],,
{16},,6,,4,,26,,8w4[8:1]/4,,,,8b,,,,
{16}6h[8:1]/2,,,5/6h[8:1],,,1/6h[8:1],,,7/6h[8:1],,,1b/5,,,,
{16}2h[8:1]/4,,,2h[8:1]/7,,,2h[8:1]/3,,,2h[8:1]/1,,,8b/4,,,,
{16}2h[8:1]/1,,,8h[8:1]/7,,,5h[8:1]/6,,,3h[8:1]/4,,,2h[8:1]/1b,,8,2,
{16}7,5,6,3,5,4,7,5,{12}6,6,6,6/1b,,,
{16}3h[8:1]/4,,,5h[8:1]/4,,,2h[8:1]/4,,,6h[8:1]/4-1[16:1],,,4b/3,,,,
{16}6h[8:1]/5,,,4h[8:1]/5,,,7h[8:1]/5,,,3h[8:1]/5-8[16:1],,,5b/7,,,,
{16}2h[8:1]/6h[8:1],,,4h[8:1]/8h[8:1],,,3h[8:1]/7h[8:1],,,1h[8:1]/5h[8:1],,,2b/6,,1,1,
{16}7,5,6,3,5-1[8:1],4,6,4,5bpp5[16:5]*qq5[16:5],,,,,,,,
{16},,,,2-6[8:1],,,,1/2b,,,8,5,,7,,
{16}4-8[8:1]/6,,3,,2-6[8:1]/4,,,,12,,,8,5,,7,,
{16}1/6,,,7,8-4[8:1],,1,,2/8,,,2,4-8[8:1],,5,,
{16}46,,,7,1-5[8:1]/7-3[8:1],,26,,1b/7b,,,,4>1[8:1],,5,,
{16}4/7<4[8:1],,,,7-3[8:1],,,,7b/8,,,1,4,,2,,
{16}3/5-1[8:1],,6,,5/7-3[8:1],,,,78,,,1,4,,2,,
{16}8<5[8:1]/3>1[8:1],,,,3/8qq3[4:2],,,,8b/4h[4:2],,,,,,,,
{16},,2,,1>4[8:1]/5<8[8:1],,48,,,,,,2/6,,3,5,
{16}2,4,3,5,8,6,5,7,1b>4[8:1],,,7,1,,8,,
{16}1<6[8:1]/5,,,3,1,,2,,1-4[8:1]/5,,,7,1,,8,,
{16}1-6[8:1]/5,,3,3,1,,2,,1-4[8:1]/5,,7,7,1,,8,,
{16}1-5[8:1]/5,,3,3,1w5[32:4],,2,,1b,,,,7<4[8:1]/8,,1,,
{16}2<7[8:1]/7b,,,,2b/5w1[8:1],,,,5b,,,,36,,5,,
{16}1/4-8[8:1],,,2,2p6[16:2]/4,,,,4/2,,,,4-8[8:1],,3,,
{16}2-5[8:1]/4b,,,,2b/6<4[4:2],,,,6b/1h[4:2],,,,,,,,
{16},,5<4[8:4],,6,,5b/7h[8:5],,,,,,,,,,
{24}5,6,7,8,1,2,3>5[4:7],4,5,6,7,8,1b,,,,,,,,,,,,
{1},
{16},,,,,,,,3,4,,3,4,,2,,7,5,,7,5,,8,,5,7h[8:1],,4,6h[8:1],,3,,
{24}25,,,1,2,3,4/8[8:1],,,26,,,{16}1b,,4,2,,5,3,,
{16}6-4[32:3],4-7[16:1],,6,4,,,,28,,7,5,6,4,7h[8:1],,
{16}1,7,2,8,3,1,1,1,3,5,4,6,4,5,2,5,
{16}4,7,4,5,1,1,8h[8:1],,{32}1,2,3,,5,,5,,2,3,4,,6,,6,,
{16}3,7,1-3[32:3],8,3-7[8:1],6,1b,,4b,E
