&title=WATER BLUE NEW WORLD
&artist=Aqours
&first=0.01
&des=TAKE ME AWAY
&lv_5=13+
&inote_5=(175)
{1},
{8},5w1[8:3],,,,,,,
{4}2h[4:10],,8,,
{4}7,,6,,
{4}5,,4h[1:1],1qq3[8:6],
{4},,,,
{4}7h[4:10],,1,,
{4}2,,3,,
{4}4,,5h[1:1],8qq1[8:6],
{4},,,,
{4}4-1[4:7],,8,,
{4}7,,6,,
{4}5-8[4:7],,1,,
{4}2,,3,,
{4}4>5[4:6],,,,
{1},
{8}35,4,35,2,17,8,17,6,
{16}35,,3,4,2,,17,,2,8,3,7,4,6,3,7,
{8}2b>5[16:3]/8b,,6pp5[8:3],7,,4qq1[8:3],,4,
{8},,6>8[8:3],,2<4[8:3],,6,,
{8}1,,1<3[8:5],2>8[8:5],,,,,
{8},,,,2,1,8,7,
{8}6qq5[16:3],,1pp8[8:3],2,,7qq3[8:3],,7,
{8},,1<3[8:3],,5>5[8:4],,1,,
{8}5pp2[8:3],,,8h[8:3],,,,8,
{8}75,4,4,35,2,2,18,2,
{8}7<4[16:3]/1,,3qq4[8:3],2,,5pp8[8:3],,5,
{8},,3<1[8:3],,7>5[8:3],,3,,
{8}8,,8,7s3[8:2],,4,2,8<1[8:5],
{8},,,,,,,,
{8}1>4[8:1],,5,7h[4:1],,8-4[8:1]*-5[8:1],,8,
{8},,3-7[8:1],,4-8[8:1],,5-1[8:1],,
{8}6<5[2:1],,,,,,,,
{8}46,7,7,86,1,1,28,7,
{8}2-4[8:1],,4,,5-1[8:1],6,54,,
{8}2-4[8:1],,4,,5-1[8:1],6,54,,
{8}2-4[8:1],,4,,5-1[8:1],6,54,,
{8}2>4[8:1],,5b-1[8:1],,8b<6[8:1],,2b,,
{8}5-7[8:1],,8,,1>4[8:1],2,18,,
{8}5-7[8:1],,8,,1>4[8:1],2,18,,
{8}5-7[8:1],,8,,1>4[8:1],2,18,7h[8:4],
{8},5,5,5,46,5,2>5[8:1]/4,1,
{8}2b-8[8:1]/8,,7,,5-1[8:1],6,57,,
{8}2-8[8:1]/8,,7,,5-1[8:1],6,57,,
{8}2-8[8:1]/8,,7,,5-1[8:1],6,57,,
{16}28,,3,,45,,6,5,7,,7,,8-4[8:1],,1,,
{8}8b<5[8:1]/2,,18,,24,3,45,6q8[8:3],
{8},3,3,3,1,2,3,4,
{8}7/5>1[4:1],,8,7,6h[8:1],8h[8:1],4h[8:1],2<6[16:3],
{16},,5,,5,,5,,4,6,4,6,4-8[8:1],,3,,
{8}4/2b-5[8:1],,7qq8[8:3],,4,,1,2,
{8}3h[8:3],,4,5>2[8:1],,65,,8,
{8}7<4[8:1],,2,3qq4[8:3],,43,,7,
{16},,6,,54,,3,4,2,,2,,1-5[8:1],,8,,
{8}1/7b<4[8:1],,2pp8[8:3],,5,,8,7,
{8}6>3[8:1],,1,2h[4:1],,1-5[8:1],,8,
{8}7h[8:3],,6,4,,3qq1[8:1]/5<8[8:1],,35,
{8},2h[8:1],3h[8:1],4h[8:1],5h[8:1],6h[8:1],7h[8:1],8,
{8}1b-3[8:1],,4,,5-1[8:1],6,75,8,
{8}2-5[8:1],3,28,,7<4[8:1],6,71,,
{8}1-3[8:1],,4,,5-1[8:1],6,75,8,
{16}28,,3,,45,,6,5,7,,7,,8-4[8:1],,,,
{4}8b-6[8:1]/2,8-4[8:1]/1,8-6[8:1]/2,8/1>3[8:1],
{4}1b-6[8:1]/5,1>3[8:1]/4,1-6[8:1]/5,14,
{8}5b-1[8:1]/4,,3-7[8:1]/5,,4-8[8:1]/3,,42,,
{16}71,,6,,54,,3,4,2,,2,,1>4[4:1],,,,
{4}4<7[4:1],7>2[4:1],2>5[4:1],5<8[4:1],
{4}8>4[4:1],4<8[4:1],8,4,
{16}3,4,3,,25,,25,,6,5,6,,47,,47,,
{16}3,4,3,,25,,25,,46,,37,,2>5[12:1]/8<5[12:1],,,,
{8}2b-6[8:1]/8b-4[8:1],,,,7-4[8:1],7,87,1,
{8}2-5[8:1],2,21,8,7-4[8:1],7,8b/7b,1,
{8}2bpp8[16:5]/5,,82,7-5[8:1]*-4[8:1],,7>6[16:5],,7,
{8},8,1,2-5[8:1],,,7,7,
{8}6b-1[8:1],6,65,4,3-8[8:1],3,43,5,
{8}6-1[8:1],6,65,4,3-8[8:1],3,4b/3b,5,
{8}6bpp4[16:5]/1,,46,3>8[8:1]*p7[8:1],,3,,6,
{8}25,3,4,85,7,6,52,34,
{8}2b/8b,2,2b/4b,2,2b/8b,2,2b/4b,2,
{8}6b/8b,6,6b/4b,6,6b/8b,6,6b/4b,6,
{8}2b/8b,1,2b/4b,3,2b/8b,1,2b/4b,5,
{8}6b/8b,7,6b/4b,5,6b/8b,7,6b/4b,3,
{8}2b/8b-4[8:1],1,2b-6[8:1]/8b,3,8b-4[8:1]/2b,7,2b/8b,3,
{8}7b/1b-5[8:1],8,7b-3[8:1]/1b,6,1b-5[8:1]/7b,2,7b/1b,6,
{8}3bV52[16:3],,6b,1b-5[8:1]*-6[8:1],,1b,,3b,
{16}47,,6,,5,,41,,2,,3,,4,5,4,5,
{8}3b-8[8:1]/6,4,5,6,3>8[8:1],4,5,6,
{8}7b-4[8:1],8,1,2,7<4[8:1],8,1,2,
{8}3b>8[8:1],4,5,6>3[8:1],7,8,1,2,
{16}1,8,2,,3-7[8:1]/7,,46,,37,,5,,1w5[12:1],,,,
{4}1b>1[4:23]*<1[4:10],,,,
