&title=ピアノ協奏曲第1番”蠍火”
&artist=virkato
&first=-0.02
&des=墓
&lv_5=MXM19
&des_5=墓
&inote_5=
(185){4},,,,{48}4b/5b/E6/E4,
{4},,,{16},{48},4/5,,,,,,,,,,,,,{8}5/4,
{4},,{16},{24},{48}4/5,,,,,,,,,,,,,{8}5/4,
{1},{4},{64},5/6h[1:1],
{4},,,{16},,,{64},,,5h[4:3],
{4},,{16},,,{64},,,4,
,,,,,,,,,,,,,,{2}3,
{4},,,,,6/5,
,{16},,{64},4,,,,,,3,
,,,,,2,,,,,{32}1,,,{4}1,{64},,,,,,,,,,,,,,,,,5,,,,,,4,,,,,,6,,,,,,,{16}6,
{64},1,{192},,,,,,,,,,,,,,,,,,{48}8,,,,,7,,,,,{24}7,{48},,,{16}5h[16:9],{4},,{48},4,
{4},,{64},,,{192},{32}6b/3b/E6/E4,{1},{4},{2}6b/3b,
{8}7,5,7/5,6,
{16}4,3,2,1,4,3,2,1,{8}4,4,6/3,6,
{16}7,6,5,3,6,5,{8}4/2,{16}1,3,1,3,2,4,2,4,
3,4,5,6,3,4,5,6,3,7,3,7,4,6,4,6,
4,3,2,1,{8}6,5/3,{16}1,6,1,6,3,7,3,7,
5,6,5,6,8,7,8,7,1b,6,1,6,5,7,5,7,
3,4,3,4,2,5,{8}1b,3/7,6,5/2,3,
{16}6,1,6,4,6,2,6,5,{8}7b,7,8b/6b,6/8,
{16}1,5,2,4,1,5,2,4,{8}3b,1b/5h[4:1],,4,
,,,,,,,,,,,,,,,,,,6,
5,{4}6/4,4,
5/3,5,6/4,7,
7,1,3h[4:1],4h[4:1],
5h[4:1],6h[4:1],7,7b/8b,
8b/7b,5,{8}4,3,{4}5/2,
{8}5,6,{4}7/4,{8}2,1,{4}3/8,
3/8,1,{8}7,6,5,5,
{4}4/3,4,6/4,5/3,
8/1,5/4,{8}8/1h[8:7],7,6,5,
6,6,7,7,8h[4:3],2,3,3,
4,3,2,1,6h[8:3],2,3,4,
7h[8:3],5,3,3,1h[4:1],2,4h[4:1],3,
5h[4:1],6,7,7,1/8h[4:1],2,3,4h[4:1],
3,2,1/5h[8:1],1,6/3,7,5,5,
6/4,5,3,3,2/4h[4:1],1,1,2h[4:1],
5,7,8h[8:1],4,{4}5/6,{16}3,3,{8}3,
{4}4/2,1/8,{12}2h[6:1],8,8,3h[6:1],7,7,
4h[6:1],6,6,5h[6:1],7,7,8h[6:1],1,1,6h[6:1],2,2,
4h[6:1],3,3,6h[6:1],4,4,7,5,6,3,1,2,
7,5,6,3,4,2,{4}8/1,7/2,
6/3,5/4,{12}3,8,8,4,7,7,
2,4,3,6,5,7,2,2,8,3,3,6,
4,5,3,5,4,6,{16}5/7h[16:3],,,5,4/6,,,3,
{4}4/2,5/3,{12}7/4,6,5,2/4,3,4,
{4}7/5,{12}6,6,6,{4}7/5h[4:1],6,
4,3/5,6h[1:1],{16}4,5,4,5,
{4}4,{16}5,4,5,4,{2}5,
{24},7,,6,,5,,2,,3,,4,,5h[12:1],{48},,,,,{16}6/4,,5/3,,6/4,
,5/3,,,6,5,4,5,4,3,5,4,5,4,6,5,
{8}4,5/4,6/3,{16}3,4,5,4,5,6,4,5,4,5,
{8}3,6,{16}6,5,4,3,4,5,6,3,4,3,4,6,
{8}5b,{16}3,4,5,6,3,4,5,6,{8}4,5,4,
3h[16:1],{16}6,5,4,5,4,3,6,5,4,3,4,5,{8}6,
3,3,{16}6,5,4,5,3,4,5,4,{8}5,6,
6,{16}3,4,5,6,3,4,5,6,3,4,5,4,5,6,
3,4,{8}5,5,{16}6,5,3,4,6,3,5,4,5,3,
4,5,6,4h[16:5],{4}5h[4:1],{16},,,,,6/4,{32},,,5/3,
,,,6/4,,,,5/3,,,,,{16}6,5,6,5,4,3,6,5,4,5,
4,3,{8}6b,6,{16}3,4,5,6,3,4,5,4,6,5,
4,5,{8}3,{16}3,4,{8}6b,{16}5,4,5,3,4,3,6,5,
4,5,4,3,{8}6b,{16}4,5,4,5,4,5,3,4,5,6,
5,3,4,5,{8}6,3b,{16}6,4,6,5,{8}6h[16:1],3,
3,6,6,5/4,{16}3,5,3,4,{8}3h[16:1],6,
6,{16}3,4,5,6,{8}3b,{16}6,5,{8}6,{16}5,4,{8}5,
{16}4,3,{8}4,{16}3,4,5,6h[16:1],,6h[16:1],,6h[16:1],,6h[16:1],,6h[16:1]/5h[16:1],
,5h[16:1]/4h[16:1],,4h[16:1]/3h[16:1],,,6,2,7,1,8,7,6,5,2,4,
1,5,8,1,2,3,{32},5,,4,,7,,5,,8,,7,,6,,5,,2,,4,
,2,,4,,3,,4,,5,,6,,8,,7,,6,,5,{8}1,1,{16}3,4,
3,5,{8}4/6,4/6,{16}7,5,7,5,6,4,6,4,6,5,
3,4,7,6,2,3,{8}7,7,{16}3,4,5,6,{8}2,
2,{16}6,5,4,3,{8}8,8,{16}3,4,5,6,{8}1,
1,{32}6,5,4,3,4,5,{16}6,{8}8-4[8:13],{1},{4},,,{16},,,2,
{1},,{64},,,4h[64:65]/5h[64:65],
{1},{4},,,{16}6,
4,5,3,7/8,,,,4,7,5,
6,1/2,,,,7/8,{32},5/4,,,,2/1,,,,,,,,3,,5,,4,,6,
,2/1,,,,,,,,7,,6,,4,,5,,8/7,,,,,,,,2/1,,,{8}4/5,
{4}7/8,{16}3,5,4,4,{4}5/3,{16}6,3,5,4,
8,1,7,2,7,2,6,3,,1,1,1,8,8,8,3,
3,3,5,5,5,4,4,4,7,6,5,6,5,4,5,4,
3,4,3,2,6,5,4,3,{32}5,,,,,,,4b/5b,{1},,,,,,{4},,{16},,{8}7,
{32},,,,,,,,,,,,,6,,,,,,,{8}5,
{16},4,{32},,,,,3,{4},,{16},,,{4}1,
{8},8,{16},,,,,1/8,
E
