&title=Việt Nam Ơi (ST)
&artist=Minh Beta
&first=0
&des=Sheriku
&wholebpm=122.5
&lv_5=13
&inote_5=(122.5)
{4},,,,
{4}1bV35[2:1],,,,
{4}8V64[2:1],,,,
{4}2pp6[2:1],,,,
{4}7q3[4:1],,,
{4}2bV46[2:1]/6bV42[2:1],,,,
{4}6V84[2:1]/2V48[2:1],,,,
{4}8<4[8:1]*>4[8:1],,
{4}1<5[8:1]*>5[8:1],,
{4}8-5[8:1],1-4[8:1],7-2[8:1],,
{4}3V57[2:1]/7V53[2:1],,,,
{4}5V73[2:1]/1V37[2:1],,,,
{4}3pp4[4:1]*V14[4:1],,,
{4}8<4[3:1],5>1[3:1],2<6[4:1],,4-1[8:1],,
{8}8bv6[4:1],,,2v4[4:1],,,7v5[4:1],,,1v3[4:1],,,8v5[4:1],,,,
{4}2-4[8:1],8-6[8:1],3-1[8:1],5-7[8:1],1^4[8:1],5^8[8:1],3s7[4:1],7s3[4:3],
{1},
{8}1bp3[2:1],,,5^7[8:1],,,,,
{8}8q6[2:1],,,4^2[8:1],,,,,
{4}5p1[4:1]*q1[4:1],,,
{8}2-6[8:1],2qq5[2:1],
{1},
{8}5p4[8:3],,,4>7[8:3],,,,,
{8}4p5[8:3],,,5<2[8:3],,,,,
{4}5qq5[4:1],,,
{8}6^3[8:1],3^6[8:3],
{4},,,
{4}7bv6[8:1]/1bv2[8:1],,3v2[8:1]/5v6[8:1],,7p3[8:1]/5p1[8:1],,2q6[8:1]/4q8[8:1],,
{4}2-6[8:1],1-5[8:1],8-4[8:1],7-3[8:1],6-2[8:1],5-1[8:1],4-8[8:1],3-7[8:1],
{4}4^1[8:1]*v1[8:1],,4^7[8:1]*v7[8:1],,8z4[8:1]*V24[8:1],,7q3[8:1]/8V63[8:1],,
{4}4-7[8:1],5-2[8:1],3-8[8:1],7V52[4:1],2V48[4:1],8-6[2:1],,,,
{4}1-5[8:1],1b>4[8:1]*<6[8:1],1bw5[8:1],,
{8}7b-5[8:1],5-7[8:1],7-1[8:1],1<3[8:2],,,,,
{8}2-4[8:1],4-2[8:1],2-8[8:1],8>6[8:2],,,,,
{4}8<4[8:1],1>5[8:1],8p3[8:1],1q6[8:1],
{4}8qq1[4:1],,4-8[8:1],,
{8}6-8[8:1],8-6[8:1],6-4[8:1],4<2[8:2],,,,,
{8}3-1[8:1],1-3[8:1],3-5[8:1],5>7[8:2],,,,,
{4}6v4[8:1],5-1[8:1],3^2[24:1]*^1[12:1]*^8[8:1]*>7[6:1]*>6[24:5]*>5[4:1],,
{4}4-1[8:1]*-7[8:1],,6V84[8:1]/2V48[8:1],,
{8}7b-1[8:1],7-5[8:1],,,3-1[8:1],3-5[8:1],,,
{8}6-8[8:1],6-4[8:1],,,2-8[8:1],2-4[8:1],,,
{8}7^1[8:1],7^5[8:1],,,3^1[8:1],3^5[8:1],,,
{4}8w4[8:1],,2v3[8:1]/7v6[8:1],,
{8}7pp1[8:1],7qq5[8:1],,,3qq1[8:1],3pp5[8:1],,,
{8}6pp8[8:1],6qq4[8:1],,,2qq8[8:1],2pp4[8:1],,,
{8}7^4[8:1],5^2[8:1],3^8[8:1],1^6[8:1],,,,,
{4}2p6[8:1]/6p2[8:1],2>6[8:1]/6<2[8:1],,
{4}2bV46[2:1]/6bV42[2:1],,,,
{4}6V84[2:1]/2V48[2:1],,,,
{4}8<4[8:1]/4>8[8:1],,
{4}1>5[8:1]/5<1[8:1],,
{4}8-4[8:1],8-6[8:1]*-5[8:1],8-2[8:1]*-3[8:1],,
{4}3V57[2:1]/7V53[2:1],,,,
{4}5V73[2:1]/1V37[2:1],,,,
{4}3pp4[4:1],3V14[4:1],,
{4}6<2[4:1],2>6[4:1],4-1[4:1],,,
{4}6b^3[4:14]/2-8[8:1],,7-1[8:1],,2-8[8:1],,7-1[8:1],,
{4}2-7[8:1],,6-1[8:1],,2-7[8:1],,6-1[8:1],,
{4}3^6[4:10]/7-1[8:1],,2-8[8:1],,7-1[8:1],,3-8[8:1],,
{4}7-2[8:1],,3-7[8:1],,
{4}8^6[8:1]/1v6[8:1],8bv3[8:1]/1b^3[8:1],8b^5[8:1]/1b-5[8:1],8b-4[8:1]/1b^4[8:1],,
{8}6b-1[8:1],1-6[8:1],,,2-5[8:1],5-2[8:1],,,
{8}8-3[8:1],3-8[8:1],,,4-7[8:1],7-4[8:1],,,
{8}8^5[8:1],5^8[8:1],,,1^4[8:1],4^1[8:1],,,
{4}6V82[8:1]*V42[8:1],,
{4}7V53[8:1]/3V17[8:1],,
{8}2-6[8:1],6-2[8:1],,,8-4[8:1],4-8[8:1],,,
{8}5-1[8:1],1-5[8:1],,,3-7[8:1],7-3[8:1],,,
{8}6-1[8:1],1s5[4:2],,,2-5[8:1],,,,
{8}7v5[8:1]/3v1[8:1],1>4[8:1]/5<8[8:1],,,,
{8}7-4[8:1]/1-4[8:1],4b-1[8:3]*-7[8:3],,,,,,,
{8}8-4[8:1],4-8[8:1]*-2[8:3],8-6[8:2],,,,,,
{8}3<7[8:1],7>3[8:1],,
{8}1-6[8:1],,1-4[8:1],,1-5[8:1],,,,
{8}6pp4[4:1]/3qq5[4:1],,,,,
{8}8-5[8:1]/2-5[8:1],5-2[8:3]*-8[8:3],,,,,,,
{8}3-7[8:1],7-3[8:1]*-5[8:3],3-1[8:2],,,,,,
{8}3pp4[4:1],3V14[4:1],,,,,,
{4}1V72[8:1]/5V36[8:1],1-4[8:1]/5-8[8:1],1<6[8:1]/5>2[8:1],1pp5[4:1]/5pp1[4:1],,,3b-7[4:7]/7b-3[4:7],,,,,,,,,,,,
