&title=Xhroria
&artist=AcuticNotes
&first=0
&des=albertoBradish
&lv_5=14
&des_5=albertoBradish
&inote_5=
(200){4},,,{16},,,{32},{64}E1,B8/B1,
Cf,B5/B4,{32}E5,{1},,,,{4},{16},{8}Ch[8:3],
,,,,6h[8:3],
,,5h[8:3],,,1,1q6[2:1],
,,{4}B7,C,B3,
3h[8:3],{8}4,4h[4:1],,8,,8<3[8:5],
,E3,,E5,{4}E6,E8,
{8}4h[4:1]/8h[4:1],,,2h[4:1]/6h[4:1],,,,1/5,
{2}4/8pp4[8:5],{8}5,5,,6,
6pp1[8:5],2,{4}2,,4,
{2}5>2[16:3],{4}1<6[16:3],4-8[8:1],
{8}4x,,,8x/7xh[8:3],,,{4}5,
{16}4/2,,,3/5,,,{8}6/4,{2}4/6-1[8:1],
{4}2x/4x,{8}2pp5[2:1],2,,8,{4}8,
{8}7,6h[4:1],,4,{2}3-8[8:1],
{4}7x<3[8:3],{8}3,2,1,8,{4}8V25[2:1],
{16}5,,,6,,,{8}7,{4}8-4[8:1],8x,
{8}7b/1b,{32},,,,,,,,B7,B6,{16}B5,{32},,,,,,,,B3,B2,,,,,,,{2}8-5[4:7],
{8}E2,,,E3,
,,{4}E4,{8},,,,,,,,,,,,8/1,
,,5h[8:1],2h[8:1],7h[8:1],4h[8:1],5,
,5-8[8:1],,1,2,3,,4,
5h[8:1],6,,5/7,,E6,E5,E4,
1x,2>5[4:1],,5x,{4}6xV82[4:1],{8}4,3,
{4}3h[4:1],{8}1,1h[4:1],,8,{4}8h[4:1],
{8}6x,6x,5,5,4,4,3,3,
5h[8:1],4,,6xh/3h,,8/1,7/2,6x/3,
{2}Ch[4:1],{16}1,8,1,8,{4}1-5[8:1],
1b`Cf,{8}6x,7<4[8:1],,8,{4}1<6[8:1],
{8}4,3,2,5/1,6,7,{4}4/8,
{8}6-1[8:1],5,{4}6,{8}2,3,4/6,5,
3-8[8:1],4,3,6,7-4[8:1],8,{4}7,
{8}6x-1[8:1],4,6,2>5[8:1],,1,{4}8>3[8:1],
{8}5,6,7,4/8,3,2,{4}5/1,
{8}3-8[8:1],4,{4}3,{8}7,6,5/3,4,
6-1[8:1],5,6,3,8x/2x,7/3,{4}6/4,
{8}8,{16}7x,6x,{8}3/5x,2>5[8:1],,1/2,{4}8q4[8:1],
{8}5/8,{16}6x,7x,{8}8x,4/8,3,{16}7x,6x,{4}5x/1,
{8}4/3-8[8:1],2,3/5,{16}5x,6x,{8}7x-4[8:1],8-3[8:1],7,8,
6-1[8:1],5,6,3,2-5[8:1],{16}8,7,{4}2/6,
{8}3-8[8:1],{16}5,6,{8}3/7,7<4[8:1],,8/7,{4}1p5[8:1],
{8}4/1,3,2,6/1,7,{16}2,3,{4}4/8,
{8}5/6-1[8:1],7,{4}6/4,{8}2,3,4/6,5,
3-8[8:1],{16}4,4,{8}3,6,7-5[8:1],{16}8,1,{8}2/7-3[8:1],{16}1,2,
{1}7/3,
{4},,B7/E7/B6,B2/E3/B3,
{1}Cf,
,4pp2[4:3],
8<3[4:3],
8v5-7v4[4:3],
2V86q4[4:3],
5<1V75[4:3],
{2}4>6[2:1],{4}5,5w1[8:1],
{8}B5f/E5/E6,,,2x,{2}3x-8[8:1]/4x-8[8:1],
{16}7/5,,,5/6,,,{8}4/5,{4}4<7[8:1],3,
8xpp6[2:1],{8}5,5,,4,{4}4,
{16}2/4,,,4/3,,,{8}5/4,{4}5>2[8:1],6,
8-4[8:1],8/2,7/1-5[8:1],1,
7-4[8:1],7/8-3[8:1],8/5-2[8:1],5/6,
{16}7,6,5,4,2,3,4,5,1,5,8,4,7,3,6,2,
{1}1b-5-2-4[8:5]/5b-1-6-8[8:5],
{8}2/6,2/6,2/6,2/6-3[8:1],,6/1-5[8:1],,1/7<4[8:1],
,7/3>8[8:1],,7/3-5[8:1],,3/7w3[8:1],,7bpp3[4:3]*qq3[4:3]`Cf,
,,,,,,,,6x,
{16}4,5,{8}4,{16}5h,4h,5h,4h,5h,4h,{8}5h,{16}4,4,
6b,5,7,4,8,3,1,2,8,1,7,2,6,3,5,4,
{8}7-4[8:1],4-6[8:1],7,{16}3,2,{8}1-5[8:1],5-3[8:1],1,{16}6,7,
{8}8-4[8:1],2-6[8:1],8,2,5-1[8:1],{16}8,1,{8}2/5-1-7-4b[8:3],2,
4,3,2,{16}1,2,{8}3,3-8[8:1],2/4,3/5,
7bq3[8:1],6,4p8[8:1],5,{16}7/4,6,5,4,{8}3,1,
{16}4<8[8:1],3,2,1,{4}4/8,{16}5>1[8:1],6,7,8,{4}5/1,
{8}6/8,1/5<8b[8:1],,5b/4>1b[8:1],,4b/6-1b[8:1],,8/6b-4b[8:1],
,3-8[8:1]/6b-2[8:1],,3b/6b,,7/3,6/2,5/1,
{32}4w8[8:1],3,2,1,8,7,6,5,{4}B4f,{8}7x-5[8:1],{16}8,1,{8}2/7,4,
3-8[8:1],{16}4,5,{8}6/3,6,7<4[8:1],{16}8,1,{8}2/7,2,
{16}3,4,2,5,1,6,8,7,1h,2,6h,5,2h,3,5h,4,
2h,3,2h,1,2h,7,2h,5,1,2,3,4,{32}7/5,8,1,2,3,4,5,6,
{8}7b-4[8:1],{16}4-6[8:1],3,{8}2,1,8-4[8:1],7-3[8:1],8,7,
1b-3[8:1],{16}8,7,6/1v4[8:1],5,{8}4-2-7[4:1],1,6,6,5,
{16}4b,1,5,2,6,3,7,4,8,3,7,2,6,1,5,8,
{32}4,3,2,1,8,7,6,5,4,3,2,1,8,7,6,5,4,3,2,1,8,7,6,5,4,3,2,1,8,7,6,5,
{1}4b/8bV64V28<8b[4:15],
,,,{8}6,
5,4,3,,4,5,6,
{4}7<4[4:1],4,2>5[4:1],5,
{8}6,7/8,,1/2,,5/7,,2/4,
,5/4,,6/1,,3/8,{16}5,4,6,3,
{4}7-4[8:1],{8}7b/2b,1,{16}8,1,2,3,5/4,6,7,8,
{8}2-5[8:1],{16}1,8,{8}2/7,4,6-1[8:1],{16}8,7,{8}6/1,3,
2-5[8:1],{16}4,4,{8}2-8[8:1],8-4[8:1],7,6,{4}5V71[8:1],
{8}5/4,3,8/2-5[8:1],7,2/1,8,{16}7/3,6/2,5/1,4/8,
{8}3/7bq3[8:1],8,5q1[8:1],6,2q6[8:1],3,7-4[8:1],8,
7/5,3,1,7,5/4,2/3,1-5[8:1]/8-4[8:1],5/4,
{4}8b/1b,{8}E8,E1,,E3,,1,
{16}8/2,7,6,5,4/8,1,2,3,{32}4/5-2[8:1],6,7,8,4b-7[8:1],3,2,1,{8}5b,4b,
E
