&title=Arc of Harvest
&artist=Yu-dachi
&first=0.055
&des_5=Orange Arc
&lv_5=14
&inote_5=(129)
{1},
{8}E2,E6,E4,E8,,,
{8}E7,E3,E5,E1,,,C,,,,
{16}E6h[8:3],,,E4h[16:3],,,E5,,,,
{8}3h[8:1],4,6h[8:1],
{16}5<3[2:1],,4,4,,,,,
{16}4h[8:1],,,4hx[16:5],,,,,
{16}1x-6[8:1],,3,,1,,3,,5-1[8:1],4,7,1,5,,,
{16}2V46v3[16:5],,,8,,,7,,,
{16}8x,8,5,7,4x-2[8:1],4,6,,
{16}8h[8:1],,,7h[8:1],,1,6h[8:1],,5,7,1,4,2,5,3,7,
{16}2V85[4:1],,,3,,,,,6bV41[4:1]b,,,7b,,,,,
{1}8V64-2-5[8:5],
{16}6,,5,6,,4,5h[8:3],,B4h[8:1],,,,
{16}3,,4,3,,5,4h[8:3],,B5h[8:1],,,,
{16}7,3,5,1,,8,4q5[4:1],,6h[8:1],,4,,
{16}E1,E8,E7,E6,E5,E4,E3,E2,D1/E1,D8/E8,D7/E7,D6/E6,
{16}4xpp8[8:3],,,4,,,3h[8:3],,,,,,
{16}1xpp5[8:3],,,1,,,7h[8:3],,,,,,
{8}4b,35,46,25,47,15,48,37,2v5[8:1]/6-1[8:1],15,,,
{16}4h[8:3],,,3,,2,2<7[8:1],,,3,,,5h[8:3],,,4,,3,3>8[8:1],,,
{16}4,,,4<7[16:3],,,7>2[16:3],,,2>5[16:3],,,5V72[16:7],,,6-3[4:1]b,,,,
{8},,,
{16}5h[8:1],,3,2,1,84,,,
{8}6-4[8:1],4V61[4:1],6,2,3,4,5<3[4:1],,5,4,5,6,
{8}4/7-3[8:1],2-4-1-5-8-6[4:3]b,7,2b,,,,,,
{8}5h[8:1],8,5h[8:1],2,5h[8:1],8,5-2[8:1],2V84[4:1],5,,3,,
{8}3h[8:1],6,3h[8:1],8,3h[8:1],6,3h[8:1],8,3h[8:1],
{8}5-3[8:1],3-1[8:1],1V75[4:1]b,,
{8}4,4h[4:3],,3,,2,,1b,B8,B7,B6,B5,B4,B3,B2,
{8}A1,A8,A7,A6,A5,A4,A3,A2,1hx[8:1],
{16}6,5,7h[8:1],,3,4,2,5,3,7,1,8,2,6,
{8}B4h[4:3],,B5h[2:1],,B3h[4:1],B6h[8:1],Cf,,
{16}18,,,2-5[8:1],6,4,8,8,,,7x,,2,4,3,5,,,5h[8:1],,
{16}7h,7h,6h,6h,7h[1:0],
{16}7h,6h,6h,7h,6h,
{16}7xpp2[8:3],,4h[8:1],,,4,,,5h[8:1],,,5pp8[8:3],,,2h[8:1],,,2,,,
{16}3h[8:1],,,3,,,2-4[8:1]/4-8[8:1],,15,,,,,,
{16}26,,,7-4[8:1],3,5,1,1,,,2x,,7,5,6,4,,,4h[8:1],,
{16}2h,2h,3h,3h,2h[1:0],
{16}2h,3h,3h,2h,3h,
{24}2x,3x,2x,
{16}3bx,,,1/4h[16:3],,,
{48}8x,7x,6x,5x,,,
{16},
{16}5h[16:3]/8,,,
{4}1bp4[4:1]b,
{16}1x,,,8x,,,7xp2[4:1]/3x,,,,7x,,1x-5[8:1],,,,
{16}18,,,7-3[8:1],4,5,2,2,,,1x,,
{16}7,3,5,1,,,1h[8:1],,
{16}7h,7h,6h,6h,7h[1:0],
{16}7h,6h,6h,7h,6h,
{24}7x,6x,7x,
{16}6bx>3[8:1]b,,,7,,,8<5[8:1],,,1,,,2<7[8:1],,,3,,,
{16}4z8[4:1],,,5,,,E2/D2,,B3/E3,,
{8}A4/D4/7-4[8:1],6,
{16}17,,,2-6[8:1],5,4,7,7,,,8x,,
{16}2,6,4,8b,,,8h[8:1],,,
{16}2,2h[8:1],,3,3h[8:1],,4,4h[8:1],,
{24}6,5,6,
{16}4b<7[8:1]b,,,,
{24}8,1,2,
{16}3V51[4:1],,,7,,,8bqq4[8:3]b,,,,
{16}1,,,2,,,3,,,,2b/5b,,1z5[4:3],8s4[16:11],2,,
{4},,,
{8},
{8}6bhx[8:1],
{4}E4,E5/E3,E2/E6,E1/E7,
{4}8<5[8:1],4>1[8:1],8z4[4:1]b,8x,
{4}3h[4:1],E6/A5,
{8}E3,E5,
{4}7x/6x>1[2:1],6,,8qq4[2:1],8,,5qq2[2:1],5,,8V64[2:1]*V24[2:1],8,,,
{8}3V16[4:1],,,5V38[4:1],,,1V74[4:1],,1/6h[8:3],,,
{16}3,,,8h[16:3],,,6,,6h[8:1],,
{16}8x,5,6,3,4,1,7,2,8,4,6,2,7,3,5,1,
{8}E8h[4:3],,E2h[2:1],,E1h[4:1],B8h[8:1]/B1h[8:1],Cf/E7/E3,,
{16}3b/6b,,1<6[8:1],5,2,4,1V38[4:1],,5-1[8:1]b,,1,,,,,,37,,
{16}6pp1[2:1]b/5p2[2:1],65,,,65,,,,,,
{4},
{16}48,,7<4[8:1],1,6,2,7V15[4:1],,3-7[8:1]b,,7,,,,,,
{16}4/8,,6,5/7,,2,1V74[4:1]b/3,,
{16}E5,E6,E7,E8,E1,E2,E3,E4,
{16}E5/1b,,8>3[8:1],4,7,5,8V64[4:1],,4V26[4:1]b,,8,,,,,,8h[8:1],,
{16}2V85[8:3]b,
{8}4V61[8:3],
{16},
{8}3,
{4},,
{16}37,,2>5[8:1],8,3,7,2V84[4:1],,6-2[8:1]b,,2,,,,,,
{16}1bh[16:1]/5bh[16:1],,,4bh[16:1]/8bh[16:1],,,3bq2[4:1]b/7bq6[4:1],,,,
{8}3/7,,,
{16}15,,6-2[8:1],4,7,5,5,,,3-8[8:1],1,5,7b-4[8:1]b,,,,7,,,
{16}1,3,2,4<7[8:1],,1-5[8:1],,4,,1,,
{16}8b,,4h[1:0],4h[1:0],8,8,4h[1:0],8,,4h[8:1],,8,8,4h[1:0],8,,
{16}4h[1:0]/8,,
{16}5bh[8:1]/1bh[8:1],,,1bqq6[16:7]b/5bqq2[16:7]b,,,1b/5b,,,,,,,,,,
{16}84,,3-7[8:1],5,2,4,4,,,6-1[8:1],8,4,2b-5[8:1]b,,,,2,,,
{16}8,6,7,5>2[8:1],,8-4[8:1],,5,,8,,1b,,
{16}3,5-1[8:1]b,4,6-2[8:1],,5b,,6b,,
{16}8h[16:3],,,4,5,6,7,
{16}4h[8:1]/8,,,3h[8:1]/7,,,
{16}2h[8:1]/6,,,1h[8:1]/5,,,4<2[4:5]/8>6[4:5]b,,37,,
{2}A4f/8b,,,
{4}4<5<6<7>8>1>2>3<4[1:1],,,,,,
{8}5h[4:1]/C,,4h[8:1],6h[8:1],2h[8:1],8h[8:1],
{16}E3,B3,B4,E5,E8,B7,B6,E6,E1,B1,B2,E3,
{8}4bh[16:1],4h[16:1],3h[16:1]/5h[16:1],3h[16:1]/5h[16:1],
{8}3h[16:1]/5h[16:1],3h[16:1]/5h[16:1],
{16}2,6,1,7,3,5,
{32}2,3,4,5,6,7,8,1,2-5-8[4:6],3,4,5,
{4}6x-1-4[4:6]/C,,,,,,,
{8},
{32}E7,C,E3,,
{1},
E
