&title=Re Aoharu
&artist=Nor
&first=0
&des=absqrt.
&lv_5=12
&inote_5=(180)
{1},
{8}6/1,2,3,4h[8:11],,,7,,
{8},,8,,,,1,,
{8}8/3,7,6,5h[8:11],,,2,,
{8},,1,,,,8,,
{8}1/5,6,7,8h[8:11],,,2,,
{8},,3,,,,4,,
{8}8/4,3,2,1h[8:11],,,7,,
{8},,6,,,,5,,
{8}7h[8:1]/4,,7h[8:1]/4,3,7h[8:1]/2,,7h[8:1]/4,,
{8}7h[8:1]/4,3,7h[8:1]/2,,7h[8:1]/1,,3h[8:1]/8,,
{8}2h[8:1]/5,,2h[8:1]/5,6,2h[8:1]/7,,2h[8:1]/5,,
{8}2h[8:1]/5,6,2h[8:1]/7,,2h[8:1]/8,,6h[8:1]/1,,
{8}4h[8:1]/7,,4h[8:1]/7,8,4h[8:1]/1,,4h[8:1]/7,,
{8}4h[8:1]/7,8,4h[8:1]/1,,4h[8:1]/6,,5/2h[8:1],,
{8}8/3,8,2,2,6,6,1,1,
{8}4h[8:1],3h[8:1],8h[8:1],1h[8:1],6h[8:1],5h[8:1],8b,,
{8}1b>4[8:1],4,1,5,1-5[8:1],6,1,7,
{8}1>4[8:1],4,1,5,1-6[8:1],6-2[8:1],1,,
{8}8b-4[8:1],3,8,2,8<5[8:1],3,8,4,
{8}8-4[8:1],4,8,3,8<5[8:1],5>3[8:1],8,,
{8}1b<6[8:1],4,1,5,1-5[8:1],6,1,7,
{8}1<6[8:1],6,1,5,1-4[8:1],4v2[8:1],1,,
{8}8b>3[8:1],4,8,5,8-4[8:1],4,8,3,
{8}8>3[8:1],3,8,5,8-4[8:1],4<7[8:1],8,,
{8}1b,,1,6-2[8:1],1,6,1-5[8:1],6-8[8:1],
{8}1,6,1,6-2[8:1],1-5[8:1],6,1b>4[8:1],,
{8}7/1b,,7,4-8[8:1],7,4,7-3[8:1],4-6[8:1],
{8}7,4,7,4-8[8:1],7-3[8:1],4,7b>2[8:1],,
{8}7b/4,,4,3-7[8:1],4,3,4-8[8:1],3-1[8:1],
{8}4,3,4,3-7[8:1],4-8[8:1],3,4b<7[8:1],,
{8}4b/2,2,8,8,1,1,7,7,
{16}1,2,3,4,7,6,5,4,8,1,2,3,4b/8b-4[8:1],7,6,5,
{1}4bp2[2:7]/8bp6[2:7],,,,
{8}5h[1:1],,,4,,,3,,2h[1:1],,,4,,,5,,6h[1:1],,,5,,,4,,3h[1:1],,,5,,,6,,
{8}7h[1:1],,,8,,,1,,2h[1:1],,,3,,,4,,5h[1:1],,,6,,,7,,8h[4:3],,,4,,,5,,
{8}6bpp1[2:3],,,1,,,2,,3,,,2,,,3,,4qq1[2:3],,,5,,,6,,7,,,6,,,7,,
{8}8qq5[2:3],,,1,,,2,,3,,,2,,,3,,4qq7[1:1],,,6,,,7,,8b,,,1,,,4-7[8:1]*-1[8:1],,
{8}4bV62[2:1]*V26[2:1],,,,,,,,
{8}8h[1280:1],,6,2,,7,4-8[8:1],,5bV73[2:1]*z1[2:1],,,,,,,,
{8}4h[1280:1],,6,1,,5,8w4[8:1],,8bpp5[2:1]*qq3[2:1],,,,,,,,
{8}1h[1280:1],,6,8/2,,3,4-2[8:1]*-2[8:1],,8bz4[2:1]*V62[2:1],,,,,,,,
{8}3h[1280:1],,8,5/3,,1,7-4[8:1]/4-7[8:1],,7bV51[2:1]/4bV61[2:1],,,,,,,,
{8}6h[1280:1],,3,7/1,,8,6<1[8:1]/4>1[8:1],,6bpp7[2:1]/4bqq3[2:1],,,,,,,,
{8}4h[1280:1],,8,5/3,,6,8-4[8:1]/2-6[8:1],,8bV61[2:1]/2bV41[2:1],,,,,,,,
{8}3h[1280:1],,8,6/4,,7,1s5[4:3],,5b,5,6,6,7,7,8,8,
{8}2h[8:1],4h[8:1],1h[8:1],8h[8:1],5h[8:1],7h[8:1],1b,,
{8}4b<7[8:1]/1,,4,2,5-1[8:1],3,5,4,
{8}7-4[8:1],5,7,8,7,8,1-5[8:1]/7^4[8:1],,
{8}1b>4[8:1]/7,,1,5,2-6[8:1],6,2,7,
{8}3-8[8:1],1,3,4,3,4,5-1[8:1]/2^5[8:1],,
{8}2b-6[8:1]/5,,2,4,1<6[8:1],3,1,2,
{8}7-4[8:1],1,7,8,1,2,6-1[8:1]/3-8[8:1],,
{8}3b^6[8:1]/6,,3,7,2-6[8:1],6,2,5,
{8}1^4[8:1],4,1,5,6,7,8v5[8:1]/2v5[8:1],,
{8}8b/2b,,2,7V51[4:1],2-4[8:1],7,2,,
{8}2-8[8:1],7-3[8:1],2,7,2,,2-5[8:1]/7-4[8:1],,
{8}2b/7b,,6,3V15[4:1],6-8[8:1],3,6,,
{8}6-4[8:1],3-7[8:1],6,3,6,,6^8[8:1]/1^3[8:1],,
{8}1b/6b,,1,2V48[4:1],1-5[8:1],2,1,,
{8}1-3[8:1],6V84[4:1],1,6,1,,1s5[4:3]/6,,
{8}6b,6,7,7,8,8,1,1,
{16}8,7,6,5,1,2,3,4,1,8,7,6,1b-5[8:1]/5b,2,3,4,
{1}1bqq3[1:4]/5b,,,,
{1}7-4[1:4],,,,
{1}1<6[1:4],,,,
{1}5-2[1:4],,,,,,,E
