&title=雨神楽
&artist=荒谷サトル
&first=0
&des=神谕
&clock_count=4
&lv_5=14.3
&inote_5=(210){4},,
{4},,C,,,,
{8}4,3,2,
{8}8,7,6,
{8}4/5,4,,3/2,,1/8,,7/6,,
{8}4,5,3,6h[4:1],,
{8}5,4,3h[4:1],
{16}8,7,6,5,
{8}3,4,5,
{16}1,2,3,4,
{16}1x,2,3,4,5,6,7,
{16}8/4,,,
{16}7/3,,,
{16}6/2,,,
{16}1x-3-5[4:2],,,5,,,6,,,6,,,6,,,
{16}1x-7-5[4:2],,,4,,,3,,,3,,,3,,,
(280)
{16}1x,,5,,1,,6,,1,,5,,1,,6,,1,,,,
{16}8x,,4,,8,,3,,8,,4,,8,,3,,8,,,,
(140)
{12}1x/2,,2x/3,,3x/4,,4x/5,,5x/6,,6x/7,,
(105)
{4}7x/8b<4[2:1],
{8},C,
{4}4>8[2:1],
{8},C,
{8}8<4[2:1],,
{8},C,
{4}3h[4:1],,
{8}8-3[8:1]/1,2,
{8}7-4[8:1]/8,6,
{8}8<5[8:1]/7,1,
{8}2z6>6>4[4:3]/8,4,
{8}7h[8:5]/2,,,,,,
{32}7,8,1,2,3,4,5,6,
{4}7/1b>5[2:1],
{8},C,5<1[2:1],,
{8},C,1>5[2:1],,
{8},C,6h[4:1],,,
{8}C,
{8}1-3[8:1],8-6[8:1],
{8}1-5[8:1],8-4[8:1],
{8}1-3[8:1],8-6[8:1],
{8}1>8>4[4:2],8,
{8}1,,,
{8}C,
{32}8,7,6,5,4,3,2,1,8/4,5,6,7,8,1,2,3,
(210)
{8}4/5b,,
{8}7/8<5[8:1],,
{8}8,1v6<3[4:2],4x,1,,,
{8}5,,
{16}4x,5,4,6,4,7,4,,
{8}8<5[8:1],,8/1,,
{8}2,3>8>3[4:2],8,3,,,
{8}C,,
{8}5b/4b,,,,
{8}1>4[8:1]/2,,
(210)
{8}7-4-6[4:1]/1,,
{8}7,3x,2,7x,,
{8}1,8,,
{16}1,8,1,7,1,6,1,,
{8}5-7[8:1]*-3[8:1],,
{8}5,,
{8}1-3[8:1],8-6[8:1],1,8,
{12}1x,2x,4,2,3,5,3,4,6,4,5,7,
{8}8b,,
{8}2/1>4[8:1],,
{8}1,8v3>6[4:2],5x,8,,,
{8}4,,
{16}5x,4,5,3,5,2,5,,
{8}1>4[8:1],,1/8,,
{8}7,6<1<6[4:2],1,6,,,
{8}C,,
{8}4b/5b,,,,
{8}8<5[8:1]/7,,
{8}2-5-3[4:1]/8,,
{8}2,6x,7,2x,,
{8}8,1,,
{16}8,1,8,2,8,3,8,,
{16}4x,3,2,1,
{16}5,6,7,8,
{16}2,3,4,5,
{16}1,8,7,6,
{16}4,3,2,1,
{16}7,6,5,4,
{16}1,2,3,4,
{16}6,7,8,1,
{8}2b,,
{8}3,3/4,,
{8}6,6/5,,
{8}1h[8:1],8,2h[8:1],1,
{24}2x,3,4,5,7xh[24:4],,,,
{24}4,,,,
{8}8b/1,,
{8}6,6/5,,
{8}3,3/4,,
{8}8h[8:1],1,7h[8:1],8,
{24}6hbx[24:4],,,,
{24}5hx[24:4],,,,
{24}4hx[24:4],,,,
{8}3hb[4:4],,
{8}8,8,,
{8}7,7,,
{24}7,6,5,4,,,
{8}1,C,
{24}2,3,4,5,,,
{8}8,,
{8}6b/2h[8:1],6,,
{8}5/1h[8:1],5,,
{8}7h[8:1]/3,3,C,,
{8}8q5[4:1]/1p4[4:1],,
{8}8/1,,,,
{12}1/6-4[8:1],,1,,1,,
{12}2/7-5[8:1],,2,,2,,
{12}3/8-6[8:1],,3,,3,,
{16}8x/1,,2,1,2,1,2,,
{12}8x/3-5[8:1],,8,,8,,
{12}7/2-4[8:1],,7,,7,,
{12}6/1-3[8:1],,6,,6,,
{8}8b/1x,,,,
{8}2-4[8:1],,2/1,,
{8}6-8[8:1],,6/5,,
{8}2>5[8:1],,2/1,,
{8}6<1[8:1],,6/5,,
{8}3,4,2/1,,
{8}6,5,7/8,,
{12}E2,,E3,,E4,,E6,,E7,,E8,,
{8}1b/2b,,
{8}2,1,,
{8}8,1,8,
{8}3,3,4,
{8}1/2,,
{8}3,4,5,
{8}7/8,,
{8}6,5,,
{8}1,8,1,
{8}5,5,4,
{8}6/3,,
{8}3,4,5,
{8}8b/7b,,
{8}7,8,,
{8}1,8,1,
{8}6,6,5,
{8}8/7,,
{8}6,5,4,
{8}2/1,,
{8}3,4,,
{8}8,1,8,
{8}4,4,5/4,,C,
{8},,,
{8}7-5-3[4:1],,4,3,
{8}2-4-6[4:1],,5,6,
{8}7-5-3[4:1],,4,3,
{8}2-8-6[4:1],,3,4,
{8}5-7-1[4:1],,4,3,
{8}2-4-6[4:1],,5,6,
{8}7-1-3[4:1],,6,5,
{8}4-6[8:1]*-2[8:1],,4,,
{8}8,B3,6,5,
{8}B8,3,4,2,
{8}7,B5,8,1,
{8}4,3,C,1,
{16}7,8,7,,
{16}2,1,2,,
{16}7,6,7,,
{16}2,3,2,,
{16}6,5,7,,
{16}3,4,2,,
{16}7,5,6,,
{16}2,4,3,,
(26.25)
{160}8bw4b[32:1],,,,,,,,,,,,,,,,,,,,,,,,,,,,,,
{128}1,8,1,8,1,8,1,,
(210)
{8}8b,,,,
{24}6,7,8,
{24}2,3,4,
{24}6,7,8,
{24}2,3,4,
{8}5b,,
{16}4,5,4,5,3pp7b[4:3]*-1[4:1],,,,
{8}3b,,,,,
{8}1,1q5[4:1],,
{8}7,7,
{8}6h[8:3],,
{16}7b,8,1,2,
{16}6b,7,8,1,
{16}3b,4,5,,
{8}7/5x,6,
{8}2/4,3,
{8}5/4,6<1[4:1]/3,,6,
{8}4,4,3,2,1qq4b[4:4]*-5[4:1],8,7/1b,,,,,
{8}5,5,,
{8}6h[4:1],,
{12}5b,,4b/3,,1/2b,,5b/4,,7/6b,,8b/1,,
{8}5h[4:2]/4h[4:1],,,,
{24}3,2,1,
{24}7,6,5,
{24}3,2,1,
{24}7,6,5,
{8}4b,,
{16}5,4,5,4,6qq2b[4:3]*-8[4:1],,,,
{8}6b,,,,,
{8}4,4,,
{8}2,2,
{8}8h[8:3],,
{16}1b,2,3,4,
{16}8b,1,2,3,
{16}7b,8,1,,
{8}5<7-1[4:2],,C,,4,,3,,
{8}2>4-6[4:2],,C,,8,,
{8}7<4[4:1]*>2[4:1],,,,,
{8}3,4/2,,
{16}5,4,5,4,
{12}6hb[4:2],,3b,,2b,,
{12}1hb[12:4],,8b,,7b,,
{8}5p8[4:1]/1,,2,,
{8}3x,4,7,6,
{8}5-1[4:1]/1,,2,,
{8}3,4,
{8}8-6-4[4:1]/5-3-1[4:1],,,,,
{8}3x<6[4:1],3,,
{8}1,1,
{8}2h[8:3],,
{16}8b,7,6,5,
{16}1b,8,7,6,
{16}2b,1,8,,
{8}4,4,
{8}2/5,3,
{8}7/4,6<1[4:1],,C,2,3,4,5,6,7,
{8}8-2-4[4:1]/1>6[4:2],,,,,,
{16}1x,2,3,4,
{16}1x,2,3,4,
{12}5/1b,,6/2b,,7/3b,,8/4b,,5b/1,,6b/2,,
{8}4q1[4:1]/8,,7,,
{8}6x,,2,,
{8}4-8[4:1]/8,,7,,
{8}6,,
{8}1-3-5[4:1]/4-6-8[4:1],,,,,
{8}6x,6>3[4:1],,8,8,7h[8:3],,
{16}1b,2,3,4,
{16}8b,1,2,3,
{16}7b,8,1,,
{8}5pp8[8:5],,4,,3,,2,,
{8}1pp4[8:5],,8,,7,,,,
{16}6,5,6,5,6,5,6,5,
{8}7h[8:3],4,,,
{16}3,4,3,4,3,4,3,4,
{8}2h[8:3],5,,,
{16}8,1,8,1,8,1,8,1,
{16}7,1,7,1,7,1,7,1,
{16}6,1,6,1,6,1,6,1,
{16}5,1,5,1,5,1,5,1,
{32}4bx-7[16:1],,,,,,2b-5[16:1],,,,,,8b-3[16:1],,,,,,6b-1[16:1],,,,,,
{32}5bx-8[16:1],,,,,,3bx-6[16:1],,,,,,1bx,,,,,,7b,,,,,,
{32}5bh[32:6],,,,,,3bh[32:6],,,,,,1bh[32:6],,,,,,7b,B7,,,,,,,,,,,,,,,,,,,,,,,,,,,,,,E
