&title=原色
&artist=三Z-studio
&first=0.025
&des=GR
&lv_5=13
&inote_5=(128)
{4},,,,
{16}3h[8:3],,,4,,,5,,4^1[8:1]/6,,,,5x,,,,
78,,,7h[16:9]/8^2q4[16:5],,,,,,,,,,,,,
6h[8:3]/5,,,5,,,4,,5-1[8:1]/3,,,,2x,,,,
21,,,8h[16:9]/1^4q5[16:5],,,,,,,,,,,,,
24,,,34,,,5/6-1[8:1],,5/6h[4:1],,,,,,,,
75,,,65,,,4/3-8[8:1],,4/3h[4:1],,,,,,,,
18,,,27,,,3q8[16:3]/6p1[16:3],,36,,,,,,,,
4h[8:5]/5h[8:5],,,,,,,,,,,,E5,,,,
{4}1h[8:29],3,,3,E8`B7,3,,3,E6`B5,3,,3,E8`B7,3,
{8},4x,3/5^8v3[8:3],,
{16}1,1,,2,,,5V31[16:3],,,,8,,8,,,,
57,,4,,7,5,,3,4-8[8:1],,,,1^4[8:1],,,,
{16}8,,7,,65,,3,,2-6[8:1]/4,2,,,,,,,
17,,4,,6,8,,2,1-5[8:1],,,,1b/8,,,,
4>6[8:4]/7h[8:1],,,6h[8:1],,,5,,Ch[4:1],,,,,,,,
5<3[8:4]/2h[8:1],,,3h[8:1],,,4,,Ch[4:1],,,,,,,,
5h[8:1]/7h[8:1],,,4h[8:1]/6h[8:1],,,3h[8:1]/5,,1>5[8:1],,,,8,,,,
4h[8:1]/2h[8:1],,,5h[8:1]/3h[8:1],,,6h[8:1]/4,,8-4[8:1],,,,2-6[8:1]/8,,,,
2b/5b,,,,5,,3,3,5,,,,5,,3,,45,,,,4,,6,6,4,,,,4,,8,7,
5hx[8:4]/6x,,,1,,,3,,,,48,,37,,26,,
4hx[8:3]/3x,,,8,,,6-2[8:1],,,,,,4x>5[16:7],,,,
,,,,,,,,,,27,,1-5b[12:1],4,,,
1b/8b,,,,4/6,,3,,2,2,7V51[16:3],8h[16:3],,,7,,
4,,3,,28,,7,,4-8[12:1],4,5,2h[16:3],,,,,
7h[16:5]/1,,8,8,,4,,2-5[12:1]/8-4[12:1],,{48}A1/B1/7x,,,,,,82,,,{16},,3,,
18,,3,1,,6,8,,1/8-4-2b[16:2],,,,1xw5b[12:1]/8x,,,,
1b,,,,37,,5,,2,2,1qq5[16:4],3h[16:3],,,1,,2,,3,,46,,8,,1,8h[16:3],,5,5,,46,,
2V48[16:3],,13,,8,,7,,6V84[16:3],,57,,4,,3,,
26,2pp1[8:2]/6pp5[8:2],,C/E8/E4/B8/B4,,,,,,,,,4x/8x,,,,
8b/1b,,,,5/3,,4,,8,8,2-6^4[16:3],1h[16:3],,,2,,
1,,8,,35,,2,,5-2[12:1],5,4,7h[16:3],,,,,
2h[16:5]/1,,4,4,,6,,7-4[12:1]/1-5[12:1],,{48}A8/B8/2x,,,,,,17,,,{16},,6,,
81,,7,5,,2,4,,8/1-5-7b[16:2],,,,8w4b[12:1]/1,,,,
8b,,,,62,,4,,7,7,8pp4[16:4],6h[16:3],,,8,,7,,6,,53,,1,,6,8h[16:3],,4,4,,35,,
12,,38,,47,,56,,3,4,2,5,1,6,8,7,5hbx[8:3],,,,,,1,,5v2[12:1]/1-6[12:1],,,,1b/5b,,,,
3hx[16:3],,,2hx[16:3],,,1xq5[8:1],,,,,,,,,,
6hx[16:3],,,7hx[16:3],,,8xv6-4^1[8:3],,,,,,,,,,
8x,,,,18,,4,7,5x,6,5,6,4x,5,4,5,3x,4,3,4x,2,5,2x,6,8x-4-6[8:1]*-4-2[8:1],,,,8b,,,,
2hx[16:3],,,3hx[16:3],,,4x^1[8:1],,,,,,,,,,
7hx[16:3],,,6hx[16:3],,,5x^4z8^1[8:3],,,,,,,,,,
4qq5<4[8:5],,,C,,,8h[8:4],,,,,,,,,,
7h[16:3],,,6h[16:3],,,5h[16:3],,,4h[16:3],,,3,,3,,
{32}2h[32:3],,,3h[32:3],,,4h[32:3],,,5h[32:3],,,6h[32:3],,,
{32}7pp2[8:4],
{16},,,,,,,,,,,,,,,,,,,,,,,,,,,,,,,,,,,,,,,,
5hx[16:12],,,,,,,4hx[16:5],,,,,,,45,,
36,,2,24,,7,57,,3,6,2,7,{32}1,2,3,4,5,6,7,8,
{16}1-5b[12:1],,,,1b/5b,,,,7,7,,3,4,3,2v5[12:1]/5,,,,12,,8,,7h[8:1],,4-8-6[16:3],6,,2,4,,1,,
5>1[32:5],,48,,7,,6,,4<8[32:5],,51,,2,,3,,
15,1qq8^2[8:2]/5qq4^6[8:2],,E8/E4/C/B7/B3,,,,,,,,,4x-1[12:1]/8x-5[12:1],,,,
8b/4b,,,,2,,6,5,8,8,3-1-5[16:3],4h[16:3],,,3,,
,,7,,46,,2,2,4,3-7[12:1],6,6,,,,,
8h[16:5],,4,4,,6,,7^4[12:1]/1q5[12:1],,{48}A8/B8/3x,,,,,,17,,,{16},,6,,
81,,2,21,,7,87,,1-5-7b[16:2],8,2,,8w4b[12:1]/1,,,,
8b,,,,7,,5,,3,3,,4/2h[16:3],,,1p8[16:4],,,,7,,5,,3,,4-8[8:1],2,,5,4,,7,,
5pp5[4:1]/1,,,,5qq5pp5b[4:2]/1h[8:5],,,,,,,,,,,,
3,3V14b[16:4]*pp4b[16:4],,A7/A8/E8/B7/B8,,,,,,,,,2x/6x,,,,
1,6,2,5,3,4,2,1,3,8,4,7,3,3,8,8,1h[8:3]/5h[8:3],,,,,,,,1-6[12:1]/5v2[12:1],,,,1b/5b,,,,
34,,5,,6,,7,7,4-6[12:1],,3,,2,,8,8,5-7[12:1],,4,,3,,1,1,6-8[12:1],,5,,4,,2,2,
1-5[12:1],,8,,71,,6,6,5-1[12:1],,4,,35,,2,2,
1-5[12:1],,8,,71,,6,6,5,7,4,6,3,5,2,4,8b-4[12:1],,,,18,,3,3,5-7[12:1],,24,,5,,
8,8,4-2[12:1],,75,,4,,1,1,5-7[12:1],,2/4-8[12:1],,5,,4,,
5,,23,,17,,56,,2,1,3,4,8z4[8:4],7,5,6,3hx[4:3],,,,,,,,,,,,,,,,,
