&title=Lisrim
&artist=onoken
&first=-0.1
&des=ZetDeluge
&lv_5=14
&des_5=ZetDeluge
&inote_5=
(172){4},{8},,,,6,4,
5,,,3,4,,,6,
5,,,2,4,,,7,
5,,,2,1,,,7,
{2}8,{8}2,4,3,5,
4,,,7,5,,,3,
1,,,7,{4}5,{8}2,4,
{4}3,{8}7,5,{4}6,{8}2,8,
{4}1>3[8:1],{8}8,7,6,5,4,3-5-8[4:1],
3xh[8:3],,,,,,,8-5q2[8:3],
8xh[8:3],,,,,,,6/5,
1,,,4/3,8,,,6/3,
{2}1/8,{8}5,6,7,8,
1>4[8:1],,,5,5<8[8:1],,,2,
2>5[8:1],,,6,{4}6<1[8:1],{8}6x,5,
4<7[8:1],3,2,1>4[8:1],8,7,6<1[8:1],5,
4,3<6[8:1],2,1,{4}8b,{8}7h[8:3],{16}5,4,
3,2,{8}1-5[8:1],8,8,7<4[8:1],1,1,2-5[8:1],
8,8,8p4[8:1],2,2,{16},,,,4,5,
6,7,{8}8v5[8:1],1,1,2>5[8:1],7,7,8-4-8[4:1],
8,8w4[8:1],,,,,2-5[8:1],1,
{4}2,{8}8-4[8:1],1,{4}8,{8}1-5[8:1],8,
{4}1,{8}7-4[8:1],8,{4}7,{8}2,3,
4,{16}5,6,7,8,1,2,3,4,{32}5,6,7,8,1,2,3,4,5,6,7,8,
{4}1b,,,7bxh/2bxh,
{8},5,,E2,6/E3,E4,,6/E1,
,E2,5/E3,E4,,6/B4,,6/B1,
,3,,E8,4/E7,E6,,3/E1,
,E8,4/E7,E6,{24},,,3h[2:1]/D8,,A7,,D7,,A6,,D6,
,A5,,{8}4,,3,5,3,,5/4,
,6,4,6,,6/5,{24},,,4,,3,
,2,,{8}8/1,,2,7,3,6,4/5<8[16:3],
{16},,1/5,2,3,4,1,2,3,4,1/5,2/6,3/7,4/8,5,6,
7,8,{8}1b/5b,,4,4,5/3,,6/4,
,5,5,6/4,,8<5[8:1]/2>5[8:1],,8/2,
,1/7,,8,8,1/7,,8/2,
,1,1,2/8,{16},,2,3,4,5,8,7,
6,5,{8}1b,,6/5,6,4/3,3,5/7,
7,4/2,2,7/8h[8:1],7,2/1h[8:1],2,{16}7x,8x,
1x,2x,{8}3,3,3/7,3,3/6,3,3/5,
{16}3,4,2,5,1,6,8,7,5,6,4,7,3,8,{8}2,
,1b/8b,{16},,7,6,{4}5-8-2[4:1],{16}2,3,{8}4-1-7[4:1],
,7,,6,{4}5,{16}2,3,{8}4>1[8:1],
,7,{4}6<1[8:1],4,{12}3,5,4,
{16}6,5,2,3,7,6,1,2,8,7,2,3,7,6,{8}5b<8[8:1],
{24},,,4b,3x,2x,{4}1x-5-3[4:1],{24}5,6x,7x,8x<5[8:1],,,,,,1,2x,3x,
{8}4x-8[8:1],{24}7/2h[8:1],6x,5x,{4}4x,{24}8x-5[8:1]/4x-1[8:1],7x/3x,6x/2x,5x/1x,,,,,,,,,,,,{8}6<3[16:9],
,6,{24},,,,,,{12}6x,7x,8x,
{16}1x,4,3,2,1/8,7,6,5/4,3,2,1/8,7,6,5,{8}3b/4b,
,8b/1b,{16},,3,2,{4}1<6[8:1],{24}1,2x,3x,4x-8[8:1],,,,,,{8}4>1[8:1],
{24},,,4,5x,6x,{4}7x,{8}8<6[0.2616##0.1744],6>4[0.2616##0.1744],
4>2[0.2616##0.1744],2<5[0.2616##0.5233],,,{4}3,{12}4x,3x,2x,
{16}1x,4,3,2,1,8,7,6,{8}5/4,2-8[8:1],,2/7-5[8:1],
,2/7,2,2/7,2,2/6,2,2/5,
{16}2,4,3,5,4,6,5,7,4,6,3,5,{4}2b,
{8},1b>3-7<5-1[1:7]/5b<7-3>1-5[1:7],{1},,,,,,,{4},,{8}7h[16:3],
{16}4,5,
6,7,{8}8-4[8:1],1,8,2-5[8:1],1,2,7-4[8:1],
8,7,1-5[8:1],8,1,{16},,,,4,3,
2,1,{8}8>3[8:1],7,6,5<8[8:1],4,3,2-4[8:1],
1-5[8:1],2-6[8:1],1-7[8:1],2,{4}1,{8}4,6,
{4}5,{8}5,3,{4}4,{8}5,7,
{4}6,{8}4,2,{4}3,{8}3,6,
4,{16}5,3,7,4,6,2,5,3,7,1,8,2,6,4,
{4}5b,{8}E4,E3,E2,E8,E7,E6,
{2}Ch[8:1],{8}E8/B8,,,E7,
,E6/B5,,,B1/E2,,,E3,
,E4/B4,,,{2}C,
{8},,,,,,,6h,
,3,,,5h,,,4,
,4h,,,6,,,3h,
,5,,,3h,,,5,
,4h,{24},,,,,,,,,8b,,7h,,6h,,4b,,3h,
,2h,,{8}1b/5b-7[8:1],{16},,3/5,2,{4}1-5[8:1],{16}6/1,7,{8}8-3[8:1],
,8b,{16},,8,1,{8}2-4[8:1],8-4[8:1],2,8<5[16:3],
{16},,4/8,3,2,1,4,3,2,1,8/4,7/3,6/2,5/1,4,3,
2,1,8,7,6,5,4/3,2,1,8,{8}7b/6b>3[4:1],,,,8,
8,{32}8/2b,3,{16}4,{8}1,1,{32}1/7b,6,{16}5,{8}2,
1,{32}1/2b,3,4,5,{8}1,1,{32}8/7b,6,5,4,{8}8,8,1,
{16}2,7,3,6,4,8,2,7,3,6,1,8,2,7,3,6,
{24}2,3,4,7,6,5,1,2,3,8,7,6,{32}1,2,3,4,5,6,7,8,1,2,3,4,5-1b[4:5],6,7,8,
1,2,3,4,{8}1b/5b,,,,,,,,,,,,6h[2:1],
,,,2h[1:1],
,,,,,,,,,,6,
4,5,3,
4,,,2,1,,,7,
8,,,4,{4}5,{8}E8/B8,E7,
{4}E6/B5,{8}B1/E2,E3,{4}B4/E4,{8}E1,C,
{4}E5,{8}E7,C,{2}E3/8x>8[4:7]*<8[4:7],
E
