&title=もしもからきっと
&artist=楠田亜衣奈
&first=-0.03
&des=夜梨
&lv_4=11+
&lv_5=12+
&inote_4=(58)
{1}
,{12},,,
3-8[12:3],3h[12:1],,,,,
7-4[12:3],7h[12:1],,,,,
2<7[12:3],2h[12:1],,,,,
6>3[12:3],6h[12:1],,,,,
1-5[12:3],8h[12:1],,,1,1,
7-3[12:3],8h[12:1],,,7,7,
2-6[12:3],,,,,,
7<1[12:3],,,,,,
8b-4[12:2],,,,,,
1h[12:6],,,,,2,
2h[12:6],,,,3,3,
3h[12:6],,,,,4,
4h[12:3],,,,,,
5h[12:6],,,,,6,
6h[12:6],,,,7,7,
7h[12:6],,,,,8,
8h[12:3],,,,,,
1-5[12:3],,,,,2,
2-6[12:3],,,,3,3,
3-7[12:3],,,,,,
4-8[12:3],,,,,,
2>5[12:3],,1h[12:3],,,,
1<6[12:3],,3h[12:3],,,,
4-8[12:3],,6h[12:3],,,,
6<3[12:2],,,,,,
5<8[12:2]/4>1[12:2],3,6,,,,
1b-4[12:2],8-5[12:2],,,,,
3>6[12:2],,,,,,
7-3[12:2],1-5[12:2],,,,,
4h[12:3],,,,,,
2>5[12:2],6<1[12:2],,,,,
4h[12:2],,5,5h[12:3],,,
,4,5,3,2,1,
8<3[12:2],,,,,,
8b-5[12:2],1-4[12:2],,,,,
6<3[12:2],,,,,,
2-6[12:2],8-4[12:2],,,,,
5h[12:3],,,,,,
3h[12:2],,,4h[12:2],,,
5-1[12:2],,,,,,
6h[12:2],,,5h[12:2],,,
4b,,,1b,,,
2h[12:6],,,,,,
3h[12:6],,,,,,
{24}
4h[96:50],,,,,,,,,,,{32},,{24}
5h[96:50],,,,,,,,,,,{32},,{24}
6<3[12:9],,,,,,,,,,,,
,,,,,,,,,,,,
,,,,,,8b,,,
,,,,,,
,,,,,,
,,,,,,
&inote_5=(58)
{1}
,{12},45,6,
7>2[12:2]/3h[12:1],4h[12:1],5h[12:1],,,5,
3<6[12:2]/7h[12:1],8h[12:1],1h[12:1],,,1,
8q1[12:2]/3h[12:1],4h[12:1],5h[12:1],,,5,
5p4[12:2]/2h[12:1],1h[12:1],8h[12:1],,,1,
6h[12:1],8h[12:1],5h[12:3],4,3,2h[12:1],
7h[12:1],8h[12:1],6h[12:3],5,4,3h[12:1],
2s6[12:3],,,,,,
7<1[12:3],,,,,,
8b,,,4,3,2,
1>4[12:2]/8h[12:2],,,7<4[12:2],,,
7-3[12:2]/2h[12:2],,,4<7[12:2],,,
1h[12:2]/4-8[12:2],,,2>5[12:2],,,
2-6[12:2]/7h[12:2],,,4,,,
4>1[12:2],5,6,7,,,
1<6[12:2],2,3,4,,,
5<8[12:2],4,3,2,,,
1s5[12:2],2,3,,,,
8<3[12:3],1,2,3q8[12:2],2,1,
1h[12:1],,2,3,4,5,
1>6[12:3],8,7,6p1[12:2],7,8,
8h[12:1],,7,6h[12:1],,4,
4-8[12:2]/3h[12:1],,5h[12:1],,6,7,
1-5[12:2]/8h[12:1],,2h[12:1],,3,4,
3q8[12:2]/6h[12:1],,4h[12:1],,1,3,
7h[12:1],5h[12:1],6h[12:1],2h[12:1],4h[12:1],3h[12:1],
7-4[12:1],4-1[12:1],1-6[12:1],3,2,3,
1b-5[12:1],7,3,1>7[12:3],3,8,
7pp3[12:2]*pp4[12:2],,,,,,
8b-4[12:1],2,6,8<2[12:3],6,1,
2V46[12:2]*V86[12:2],,,,,,
2>5[12:1],8,6,2qq5[12:3],7,1,
6h[12:1],,7,8h[12:1],,7,
14,24,34,45,46,47,
2-5[12:1]/8,5-8[12:1],8-3[12:1],6,7,6,
8b-4[12:1],2,6,8<2[12:3],6,1,
2p8[12:2]*>8[12:2],,,,,,
4b-8[12:1],6,2,4>6[12:3],5,6,
5s1[12:2],,,,,,
3h[12:2]/4,,,4h[12:2]/5,,,
5>2[12:2]*<8[12:2]/6,,,,,,
5h[12:2]/6h[12:2],,,5h[12:2]/4h[12:2],,,
3>7[12:2]*<7[12:2]/4,,,3b,,,
2q3[12:3],,,,,,
7pp4[12:3],,,,,,
{24}
1s5[12:3],,,,,,,,,,,{32},,{24}
7V15[12:3],,,,,,,,,,,{32},,{24}
2pp6[12:9],,,,,,,,,,,,
,,,,,,,,,,,,
,,,,,,1b,,,
,,,,,,
,,,,,,
,,,,,,
E
