&title=I'm so Oni ☆
&artist=ClusterFunk (arranged by Ryu☆)
&first=0.11
&des=啊这个好可爱啊这个
&lv_5=14
&inote_5=(181){4}6
,3,6,3,
6,3,6,3,
{8}6h[4:1],5,3h[4:1],4,6h[4:1],5,3h[4:1],4,
6h[4:1],5,3h[4:1],4,6h[4:1],5,3h[4:1],4,
6b,7,3,2,6,7,3,2,
6b,6/5,3,4/3,6,7/8,3,2/1,
{16}2,1,3,8,4,7,5,6,3,4,2,5,1,6,8,7,
{32}1,2,3,4,,,,,8,7,6,5,,,,,4,3/5,2/6,1/7,,,,,7/1,6/2,5/3,4,,,,,{8}B8/B7/B3/B4,
B1/B2/B6/B5,{4}Cf,{16}E8,E4,E6,E2,{4}E7f/E3f,
{16}6,2,6,2,7pp8[4:1],1,7,1,{4}8-5[8:1],E8f,
{8}2,2,7,7,2,{16}6,5,,3,{8}4,
7,{16}5,6,,4,{8}3,2,{16}3,4,,6,{8}5,
4/7,7,5/2,2,2,{16}4,3,,5,{8}6,
{4}7/Cf,B2f/B3f/7pp8[4:1],8-5[8:1],E8f,
{8}3,3,6,6,2,{16}5,2,,2,{8}5,
7,{16}4,7,,7,{8}4,2,{16}5,2,,2,{8}5,
3/6,3,2/7,7,1,{16}8,1,,1,{8}8,
{16}1,1,,2/8,,2,{8}8,{16}7/3,7/3,,6/4,,4,{8}5,
{4}3b/Cf,7b/Cf,6-2[8:1]/2-6[8:1],2/6/Cf,
{1}1b-4-7-3-6-1[4:29],
,,,,,,{4},,,{8}8,
8,
7>2[4:27],6,5,{16}4,5,4,5,{8}4,3,3,
4,4,3,{16}3,4,3,4,{8}3,4,4,
5,5,6,{16}5,6,5,6,{8}5,5,4,
3,3,4,{16}3,4,3,4,{8}3,4,4,
{1}3bq6[2:1],
3bq6[2:1],
{8}6b,6,{32}6b/A7,5/A8,4/A1,3/A2,,,,,{8}6b,6,{32}6b/A7,5/A8,4/A1,3/A2,,,,,7,
6,5,4,,,,,8,1,2,3,,,,,5/4,3/6,2/7,1/8,,,,,8/1,7/2,6/3,5/4,,,,,{8}B2/B3,
B7/B6,{4}4<1[4:1],{16},,,,,,,,8-4[8:1],
7,,7,{8}8,7,{16}1-5[8:1],2,,2,{8}1,2,
{16}3-7[8:1],4,,4,{8}3,4,5-1[8:1],1-5[8:1],{16},,,,2-5[8:1],
2,,,{8}5/2,6,{16}7-4[8:1],7,,,{8}4/7,3,
{16}2-5[8:1],2,,,{8}5/2,6,7-3[8:1],3-7[8:1],{16},,,,4-8[8:1],
,,3,{8}4,3,{16}5-1[8:1],6,,6,{8}5,6,
{16}7-3[8:1],8,,8,{8}7,8,1-5[8:1],5-1[8:1],{4}A1,
{16}6-1[8:1],6,,,{8}1/6,2,{16}3-8[8:1],3,,,{8}8/3,7,
{16}6-1[8:1],6,,,{8}1/6,2,3-7[8:1],7-3[8:1],{4}A3,
{16}8,8,,7,{8}1,6/2,{16}1,1,,2,{8}8,7/3,
{16}8,8,,7,{8}1,6/2,3/7-3[8:1],7/3-7[8:1],{16},,,,1,
1,,2,{8}8,3/7,{16}8,8,,7,{8}1,2/6,
{16}1,1,,2,{8}8,3/7,6/2-6[8:1],2/6-2[8:1],{16},,,,8,
8,,7/1,{8}1/7,6/2,{16}1,,,2/8,{8}8/2,7/3,
{16}8,8,,7/1,{8}1/7,6/2,7-2[8:1]/3-6[8:1],2-7[8:1]/6-3[8:1],,,{2}B3f/B7f,
E6f/E2f,
{16}7h[16:3],,,6h[16:3],,,{8}5,{16}4h[16:3],,,3h[16:3],,,{8}2,
{1}Cf/1bw5[4:7],
E
