&title=Kissing Lucifer
&artist=ETIA.
&first=0
&des=Exenmeter
&lv_5=14
&inote_5=(170),
{48},,,,,,,,,1x,,2x/8x,,3x/7x,,6x/4x,,5x<5V71V35[106#4:19],,,,,,,,,,A1,,B1,,C1,,B5,,A5f,
{1},
{1},
{1},
{1},
{1}E2,
{1}E3,
{1}E6,
{1}E7,
{8}6/4,,4,3h[4:1],,5,2,,
{8}3/5,,3,6h[4:1],,4,7,,
{2}8>3[2:1],E1,
{2}4<7[2:1],E5,
{8}2/8,,2,3h[4:1],,1,4,,
{8}1/7,,7,6h[4:1],,8,5b-1[1:1],,
{1},
{1},
{16}4/6,,3,,2,8h[8:1],,,3/5,,6,,7,1h[8:1],,,
{16}2/8,,7,,6,4h[8:1],,,1/7,,2,,3,5h[8:1],,,
{16}4/7,,3,,2,6h[8:1],,,5/2,,6,,7,3h[8:1],,,
{16}4/8,,3,,2,7h[8:1],,,1,6,2,5,3,4,3,,
{16}2/8h[8:1],,,7x,3h[8:1]/6,,,2x,1/7h[8:1],,,6x,5/3h[8:1],,,2x,
{16}1/5h[8:1],,,6x,7/2h[8:1],,,3x,4/7h[8:1],,,8x,1/4h[8:1],,,3x,
{16}2/6h[8:1],,,7x,8/3h[8:1],,,2x,1/5h[8:1],,,6x,7/4h[8:1],,,3x,
{16}2/8h[8:1],,,7x,6/1h[8:1],,,2x,3/6h[8:1],,,7x,8/3h[8:1],,,,
{4}1b/8b,5/3,6/4,7/5,
{4}8b/7b,4/6,3/5,2/4,
{4}2b/1b,2/7,3/7,4/7,
{4}2b/8b,1/8,1h[4:1]/7h[4:1],,
{8}4/7,3,2/5,6,3/8,2,1/6,7,
{8}8/4,2,1/5,7,8/3,4,1/6,5,
{32}3,,2,,1,,8,,7,,6,,5,,4,,3bx,2,1,8,7,6,5,4,3,2,1,8,7,6,5,4,
{4}3x,7-4[8:1]/8v3[8:1],7V52[8:1]/8,E1f,
{24}1x,2x,3x,4xh[8:1],,,5/3,2/6,7-3b[255#6:1]/1,,,,C1f/3s7-1-5-2[2:1],,,,,,
{8},,,,,,3hb[8:1]/5hb[8:1],2-5[8:1],6,2,
{8}6,3x,1x-6[8:1],8x,3h[8:1]/1,,1-4[8:1],2,7h[8:1]/1,
{8},1-5[8:1],7,3h[8:1]/1,,4/6,4/6,
{8}4hb[8:1]/6hb[8:1],,{24}3/7,2/8,1-5b[255#6:1],,,,C1f/5z1-3-7-4[2:1],,,,,,
{8},,,,,,8b,{16}1,5,1,5,2,6,2,6,3,7,
{8}4-7[8:1],5,2h[8:1]/4,,4-1[8:1],3,
{8}6h[8:1]/4,,{16}8,2,8,2,8,3,8,3,8,4,8,4,
{1}8bqq3[1:1],
{8},,,,,C1f,,,
{8}8h[4:1]/3,,2-6b[8:1],7,2/6,,2-4[8:1],3,2/6,,2-6b[8:1],8,2/7,,{16}1x,8x,7x,6x,
{8}6x-2[8:1],,,,3b/8b,,{24}4,5,6,7,8,1,
{24}2-6[8:1],,,{8},,,7b-4[8:1]/8bv3[8:1],,8x/7x,,
{8}1h[4:1]/6,,7-3b[8:1],2,7/3,,7-5[8:1],6,7/2,,7-3b[8:1],1,7/2,,
{4},C1hf[4:3],,,B1/B2/B3/B4/B5/B6/B7/B8,
{8},,1>5[4:1],7,1h[4:1],,,6,
{8}7>3[4:1],,7h[4:1],,,,4V61[4:1]/3,,
{8}4h[4:1],,,,2-4[8:1],7,2-5[8:1],7,
{8}8h[4:1]/2,,,,1x-5[8:1],,1<4[4:1]/C1,,
{8}3h[4:1],,,,1-3[8:1],5,1-5[8:1],6,
{8},,7-3[8:1],,1-5[8:1],1,,8-4[8:1]/A5f,8,,2-6[8:1]/A4f,2,,7x-3[8:1]/A6f,7x,,
{1}A3f/1s5b[4:3],
{1}6-2[2:1],
{1}4-8[2:1],
{1}7V52[2:1],
{8}E1/2,,E8/2,2h[8:1],E7,,E6/3,,
{8}E1/7,,E2/7,7h[8:1],E3,,E4/6,,
{8}A5/4,,A6/4,4h[8:1],A7,,A8/3,,
{8}A4/8,,A3/8,8h[8:1],A2,,A1/7,,
{4}8x-4[4:3],B1,B6,B3,
{4}3x-7[4:3],B4,B2,B6,
{4}8x-4[16:11],B1,B6,B3,
{4}6x-2[16:9],B5,B1,B3,
{8}3/5,2,3/5,1,3/5,6,3/5,7,
{8}6/4,7,6/4,8,6/4,3,6/4,2,
{16}1x,8x,2,7,1,8,2,7,{32}1,2,3,8,7,6,2,3,4,7,6,5,1,2,3
,,
{4},C1hf[2:1],,,
{1}8-4[8:13],
{4},,8b-4b[8:1],8bx,
{16}1bx-6[8:1],,5,5,1-5[8:1],,4,4,1-4[8:1],,6,6,1-6[8:1],,5,5,
{16}1-5[8:1],,4,4,1b-4[8:1],,6,6,1>4[8:1]*<6[8:1],,,,1bw5[8:1],,,,
{8}1b,,7x-3[8:1],3-7[8:1],7/8x-4[8:1],,8-3[8:1]*-5[8:1],,
{8}8,,7-5[8:1],3,7-4[8:1],3,7-3[8:1],2,
{16}7,,,,2V48[8:1],,5,5,2-6[8:1],,5,5,2V84[8:1],,5,5,
{16}2bx,,,,{24}8,7,6,2,3,4,7,6,5,1,2,3,8,7,6,2,3,4,
{4}C1h[2:3],,2h[8:1],3h[8:1],4h[8:1],5h[8:1],6h[8:1],1-4[8:1]*-5[8:1],
{16}1bx,,,,7-3[8:1],,4,4h[64:1],7-5[8:1],,4,4h[64:1],7-3[8:1],,4,4h[64:1],
{16}7-5[8:1],,4,4h[64:1],7-3[8:1]*-3[8:1],,4,4h[64:1],7-1>2[8:1]*-5>4[8:1],,,,7bx,,,,
{16}5bx/1bx,,,,7,5,7,3,7,1,7,5,7-3[8:1],3,7,1,
{16}7b,,,,2,8,2,6,2,4,2,8,2-6[8:1],6,2,4,
{16}2b,,,,7-3[8:1],,6,4,7,,,,2-6[8:1],,3,5,
{16}2,,,,8,4,8,4,7,3,7,3,6,2,6,2,
{8}C1f,,{32}1bx,2,3,4,,2b,3,4,5h[8:1],,,,,,,,8bx,7,6,5,,7b,6,5,
{32}4h[8:1],,,,,,,,8bx,1,2,3,,1b,2,3,4h[8:1],,,,,,,,1b-5b[8:1]/2b-4b[8:1],,,,,,,,
{32}1b/2b,,,,,,,,8bx,7,6,5,,8b,7,6,5h[8:1],,,,,,,,1bx,2,3,4,,1b,2,3,
{32}4,,,,1bx,2,3,,8bx,7,6,,,7bx,6,5,4h[8:1],,,,3x,2x,1x,8x,7x,6x,5x,4x,,,,,
{32}2/8,,,,2h[4:1]/8b,7,6,,,7b,6,5,,,,,7/1,,,,7h[4:1]/1b,2,3,,,2b,3,4,,,,,
{32}1/8,,,,1x/8x,2/7,3/6,,,2x/7x,3/6,4/5,,,,,,1/8,,,,1x/8x,2/7,3/6,4/5,,3x/6x,2x/7x,1x/8x,,,,
{16}2b/8b,,2b/8b,,3b/7b,3bx/7bx,,6b,4b,6bx,4bx,6bx,5bx/3bx,5bx/3bx,5bx/3bx,,
{16}2x,4x,2x,4x,3,5,3,5,4,6,4,6,3,7,2,8,1-5[8:1]*>1[4:21],7,2,8,1-3-5-7-1b[1:5],,,,,,,,,,,,
{1},
{1},
{1},
{1},
{1},
{1}2-6[8:1],E
