&title=ハンマーを電波ソングにしてみた
&artist=Kana
&first=0.12
&des=锤子生成中 看完kop7th紧急修改定数为14.9
&lv_5=14+
&inote_5=(165)
{1},
{8}5h[2:1],,,,B2/B3/E3,,,,6h[2:1],,,,B2/B3/E3,,,,4h[2:1],,,,B7/B6/E7,,,,3h[2:1],,,,B7/B6/E7,,,,
{8}5h[8:1],,,5h[8:1],C/B5,,,,4h[8:1],,,4h[8:1],C/B4,5h[8:3],4h[8:1],,3h[8:1],,,3h[8:1],C/B3,,,,6h[8:1],,,6h[8:1],1p4[8:1]/1?-4[8:1],,1b,,
{16}2/5,,3,4,3,,2/5,,B3/B2/E3,,A4/E5,,B3/B2/E3,,A4/E5,,7/4,,6,5,6,,7/4,,B6/B7/E7,,A5/E5,,B6/B7/E7,,A5/E5,,2/5,,3,4,3,,2/5,,B3/B2/E3,,A4/E5,,B3/B2/E3,,A4/E5,,7/4,,6,5,6,,7/4,,B6/B7/E7,,A5/E5,,B6/B7/E7,,A5/E5,,2/5,,3,4,3,,2/5,,B3/B2/E3,,A4/E5,,B3/B2/E3,,A4/E5,,7/4,,6,5,6,,7/4,,B6/B7/E7,,A5/E5,,B6/B7/E7,,A5/E5,,
{8}3/6,8/1,3/6,1/8,B6/B7/E7/B3/B2/E3,A5/E5/A4,B6/B7/E7/B3/B2/E3,A5/E5/A4,2/7,5,2/7,4,1/8,,1h[4:1],,
{8}7,3,6,4,B5/E5/B4,B8/B1/E1,B3/B2/E3,B6/B7/E7,1h[8:1]/8,8,2h[8:1]/7,7,3h[8:1]/6,6,4h[8:1]/5h[4:1],,2,2,2q6[8:1]/8-6[8:1],,2-4[8:1]/8p4[8:1],,2/8,,1,5,2,6,3,7,1b,,6,6,6q2[8:1]/4-2[8:1],,6-8[8:1]/4p8[8:1],,6/4,,1h[2:1],8h[4:1],,,7b,,,,2/4,7,3/5,8,4/6,1,5/7,2,5h[8:1]/4,4,6h[8:1]/3,3,7h[8:1]/2,2,8h[8:1]/1h[4:1],,5b,6,7,8,1-6[8:1]/2-5[8:1],6/5,1/2,,4,3,2,1h[8:3],8h[4:1],,,,1/8,2/7,3/6,5/4,
{24}A5/A4,E6/E4,E7/E3,,,,A5/A4,E6/E4,E7/E3,,,,
{8}5,1,6,2,7,3,5b,,4b,3,2,1,8-3[8:1]/7-4[8:1],3/4,8/7,,8,7,6,5h[8:3],4h[4:1],,,,
{16}4,,5,,4,5,3,6,1,,8,,1q4[1:1]/1?p5[4:1],8,2,7,1b,,,,,,,,,,,,,,,,,,,,,,,,,,,,,,,,
{16}3,4,3,4,2,4,2,4,B1/B2/E2,,B3/B4/E4,,B1/B2/E2,,B3/B4/E4,,6,5,6,5,7,5,7,5,B8/B7/E8,,B6/B5/E6,,B8/B7/E8,,B6/B5/E6,,3,4,3,4,2,4,2,4,B1/B2/E2,,B3/B4/E4,,B1/B2/E2,,B3/B4/E4,,6,5,6,5,7,5,7,5,B8/B7/E8,,B6/B5/E6,,B8/B7/E8,,B6/B5/E6,,1,4,1,4,1,4,1,4,B1/B2/E2,,B3/B4/E4,,B1/B2/E2,,B3/B4/E4,,8,5,8,5,8,5,8,5,B8/B7/E8,,B6/B5/E6,,B8/B7/E8,,B6/B5/E6,,1,5,1,5,2,6,2,6,B8/B7/E8,,B3/B4/E4,,B6/B5/E6,,B1/B2/E2,,2/4,,5/7,,1/3,,6/8,,2/7,,,,,,,,
{8}3h[4:1],4,,5,4h[4:1],5,,6,5h[8:1],7,6h[8:1],,7h[2:1]/6h[4:1],,,,1h[8:3],,2-8-6[8:1]/2?p6[8:1],,2q6[8:1]/2?-4-6-4-2[16:5],,2,,,7h[8:5],6,8,6,8,1b,,2,1,8,7,8,1h[32:1],1h[32:1],,2h[4:3],3,1,3,1,,8b,,1-6[8:1]/1?-4-1[4:1],4,1,,7,8,1h[4:1],8,7h[8:1],,6/8,5/1,2/4,,,,
{8}7h[4:1],8,,1,8h[4:1],1,,2,1h[8:1],3,2h[8:1],,3h[2:1]/2h[4:1],,,,5h[8:3],,6-4-2[8:1]/6?p2[8:1],,6q2[8:1]/6?-8-2-8-6[16:5],,6,,,3h[8:5],2,4,2,4,5b,,6,5,4,3,4h[4:1],5h[8:1],,,6h[4:3],7,5,7,5,,4b,,5-2[8:1]/5?-8-5[4:1],8,5,,3-8[8:1]/3?-6-3p7q7p7[1:1],6,3,,,,,,,,,,,,,,,,,,
{16}2,3,1,4,2,3,1,4,B1/B2/E2,,B3/B4/E4,,B1/B2/E2,,B3/B4/E4,,7,6,8,5,7,6,8,5,B8/B7/E8,,B6/B5/E6,,B8/B7/E8,,B6/B5/E6,,2,3,1,4,2,3,1,4,B1/B2/E2,,B3/B4/E4,,B1/B2/E2,,B3/B4/E4,,7,6,8,5,7,6,8,5,B8/B7/E8,,B6/B5/E6,,B8/B7/E8,,B6/B5/E6,,2,3,1,4,2,3,1,4,B1/B2/E2,,B3/B4/E4,,B1/B2/E2,,B3/B4/E4,,7,6,8,5,7,6,8,5,B8/B7/E8,,B6/B5/E6,,B8/B7/E8,,B6/B5/E6,,2,7,4,5,3,6,1,8,2/7,,4/5,,1/8,,3/6,,2/5,,8,,4/7,,1,,3b/6b,,,,,,,,
{16}3,4,3,7,4,5,4,8,5/6,,1,,5/6,,1,,6,5,6,2,5,4,5,1,4/3,,8,,4/3,,8,,2,1,2,6,1,8,1,5,8/7,,4,,8/7,,4,,7,8,7,3,8,1,8,4,1/2,,5,,1/2,,5,,2,4,3,5,4,6,5,7,B3/B4/E4,,B6/B5/E6,,B3/B4/E4,,B6/B5/E6,,7,5,6,4,5,3,4,2,B6/B5/E6,,B3/B4/E4,,B6/B5/E6,,B3/B4/E4,,
{16}2/8,,2/8,,1,7,1,,1/7,,1/7,,8,2,8,,1,1,1,1,1h[8:1],,,,1,1,1,1,1/8h[1:1],,,,
{4}1b,2b,3b,4b,
{16}2/6,,1,7,2,6,3,5,4h[8:1],,3b,,2h[8:1],,3b,,7/3,,8,2,7,3,6,4,5h[8:1],,6b,,7h[8:1],,6b,,2/6,,1,7,2,6,3,5,4h[8:1],,3b,,2h[8:1],,3b,,7/3,,8,2,7,3,6,4,5h[8:1],,6b,,7h[8:1],,6b,,3/7,,4,6,3,7,2,8,1h[8:1],,2b,,3h[8:1],,2b,,6/2,,5,3,6,2,7,1,8h[8:1],,7b,,6h[8:1],,7b,,
{8}8/6,8/6,5/3,5/3,2/4,3/1,2/4,3/1,
{32}2,3,4,,8b,,,,7,6,5,,1b,,,,
{4}2b/7b,,
{16}3b,2,3,4,3,2,4,1,5,8,6,7,6,5,6h[16:1],,6b,7,6,5,6,7,5,8,4,1,3,2,3,4,3h[16:1],,3b,2,3,4,3,2,4,1,5,8,6,7,6,5,6h[16:1],,6b,7,6,5,6,7,5,8,4,1,3,2,3,4,3h[16:1],,3b,2,3,4,3,2,4,1,5,8,6,7,6,5,6h[16:1],,6b,7,6,5,6,7,5,8,4,1,3,2,3,4,3h[16:1],,
{8}4/5,1/7,5/4,2/8,4/5,1/7,4/5,2/8,5b/7b,1b/3b,6b/8b,2b/4b,
{32}2bx/4x,1bx/5x,8bx/6x,7hx[128:1],,,,,
{8},
{32}1/8,,,,1b/8b,2/7,3/6,4/5,,,,,,,,,1/2,,,,1b/2b,3/8,4/7,5/6,,,,,,,,,
{8}1/8,2/7,1/8,2/7,1/8,2/7,,,
{32}8/1,,,,8b/1b,7/2,6/3,5/4,,,,,,,,,8/7,,,,8b/7b,6/1,5/2,4/3,,,,,,,,,
{32}1x/8x,,,,1bx/8bx,2x/7x,3x/6x,4x/5x,1h[128:1]x/8h[128:1]x,,,,1bx/8bx,2x/7x,3x/6x,4x/5x,1h[128:1]x/8h[128:1]x,,,,1bx/8bx,2x/7x,3x/6x,4x/5x,,,,,
{4},,,,,,,,1b,
E
