&title=SUN♡FLOWER
&artist=U149
&first=0
&des=薫、いってきまー
&lv_5=13+
&inote_5=(165)
{1},
{4}4h[8:2]/6h[8:2],,
{4}5h[8:2]/3h[8:2],,
{4}4h[8:2]/6h[8:2],,
{4}5h[8:2]/3h[8:2],,
7<4[8:1],,2V46[16:3],,8<5[8:1],3>8[16:2],4w8[8:1],Cf,
{8}
17,6,53,4,
2>5[8:1]/1,8,7,6h[8:2],,
8,15,4,
2>5[8:1],1,8,7h[8:2],,
8,16,5,34,2,81,7,5-8[8:1]/6,,35,,2/1-4[8:1],,17,,
{16}5h[8:1]/6h[8:1],,,4h[8:1]/7h[8:1],,,38,,
1h[8:1]/2h[8:1],,,8h[8:1]/3h[8:1],,,74,,
5h[8:1]/6h[8:1],,,7h[8:1]/8h[8:1],,,16,,
4h[8:1]/3h[8:1],,,2h[8:1]/1h[8:1],,,38,,5bpp8[8:3]/6,,,,,,,,1b>4[8:1],,,,,,,,
6bpp1[8:4]*>2[8:4],,,,,,,,,,,,,,,,
24,,3,,46,,5,,3,4,,4,2,,8,,
75,,6,,53,,4,,6,5,,5,7,,1,,
24,,3,,46,,5,,3,4,,4,2,,8,,
7<4[8:1],,,4q8[8:1],,,1,,2v4[8:1]*<6[8:1],,,,,,,,
2/4x,,3,,46,,5,,3,4,2-5[8:1],4,3,,8,,
7,,6,,53,,4,,6,5,7-4[8:1],5,6,,1,,
2,,3,,46,,5,,3,4,2-5[8:1],4,3,,8,,
7-4[8:1],,,4-6<1[8:2],,,1,,2q4[8:2],,,,,,,,
8<5[8:2],,,,5>2[8:2],,,,2<7[8:2],,,,7,,7,,2p4b[8:2],,,,4>8[8:2],,,,7,,,,5>1[8:2]*<1[8:2],,,,
5,,,,,,2-6[8:2],,3h[8:2],,,,,,,,2-6b[8:2],,,,,,3,,4h[8:2],,,,6,,7,,
8>3[8:2],,,,3<6[8:2],,,,6<1[8:2],,,,1,,2,,3<6[8:2],,,,6>3[8:2]*-3[8:2],,,,
,,,,,,,,
B3/B7,,,,
B2/B6,,,,
A3/A7,,,,
A2/A6,,,,
1h[8:1]/8h[8:1],,,3h[8:1]/4h[8:1],,,56,,3b-8[8:1]/7b-4[8:1],,,,37,,,,
26,,3-8[8:1],5,2,,34,,
7<4[8:1],,6,,7/1-5[8:1],,,,
17,,6-1[8:1],4,7,,65,,
2>5[8:1],,3,,2/8-4[8:1],,,,
28,,3<6[8:1],5,1,,37,,8-4[8:1],,2,,81,,3,,
7bx-5[32:3]/8bx-5[8:1],,,,7bx/8bx,,,,
3bx-1[8:1]/4bx-1[8:1],,,,3bx/4bx,,,,
2h[16:3],,,4h[16:3],,,6-4[32:3],,6<3[8:2],,,,,,,,
7hx[16:3],,,5h[16:3],,,3-5[32:3],,3>6[8:2],,,,,,,,
,,,,1>4[8:2],,,,4qq5b[16:6],,,,
5pp4b[16:6],,,,Cf,,,,,,1x,,1xw5[8:1],,,,
{48}1b,Cf,,
{16},,,
2h[8:3]/6h[8:3],,,,,,,,3-8[8:1]/7-4[8:1],,26,,37,,,,
3h[8:3]/7h[8:3],,,,,,,,2-5[8:1]/6-1[8:1],,37,,26,,,,
2h[8:3]/6h[8:3],,,,,,,,3V17[16:3]/7,,26,,37,,5,,
4bx-2[8:1]*-1[8:1],,,,4bx,,,,7bx-5[8:1]/8bx-5[8:1],,,,
7bx>5[8:3]/8bx,,,,4/7bx,,,,4h[8:1],,,,
2-8-6-4[32:9],,,,2/5h[8:1],,,,7x>5[8:3],,,,4h[8:1]/7,,,,
2x-8-6-4[32:9],,,,2/5h[8:1],,,,7x>5[8:3],,,,4h[8:1]/7,,,,
2x-8-6-4[32:9],,,,2/5h[8:1],,,,
7x-2[8:1],,,,3-6[8:1]/7,,,,8w4b[8:1]/3,,,,8b,,,,
34,,1,,34,,2,2h[8:1],,4h[8:1],,3,4,,81,,
65,,8,,65,,7,7h[8:1],,5h[8:1],,6,5,,18,,
2h[8:6]/7h[8:6],,,,,,,,,,,,,,,,7-1[16:1],,,7/2-6[16:1],,,26,,5>2[8:1]*<8[8:1],,,,5w1[8:1],,,,
{48}5<5[8:12]*>5[8:12],Cf,,
{16},,,,,,,,,,,,,,,,,,,,,,,,,,,,,,,
2h[8:1]/4h[8:1],,,2h[8:1]/4h[8:1],,,2h[8:1]/4h[8:1],,,,2V48[16:3]/4,,24,,,,
7h[8:1],,,7h[8:1]/5h[8:1],,,7h[8:1]/5h[8:1],,,,7V51[16:3]/5,,75,,,,
2h[8:1],,,2h[8:1]/4h[8:1],,,2h[8:1]/4h[8:1],,,,2V84[16:3]/4,,24,,,,
7h[8:1],,,7h[8:1]/5h[8:1],,,7h[8:1]/5h[8:1],,,,7V15[16:3]/5,,75,,,,
3h[8:1],,,2h[8:1]/4h[8:1],,,1-5-1b[8:2]/5,,,,7,,7,,,,
6h[8:1],,,7h[8:1]/5h[8:1],,,8-4b[8:1]/4,,,,A1f,,A3f,,,,2x>8[8:12]/8<2[8:12],,,,,,,,,,,,,,,,,,,,,,,,,,,,,,,,
3-6[8:1],,,,3/7-2[8:1],,,,1-5[8:1]/7,,,,1/8<1[8:3],,,,4h[8:3]/8,,,,,,,,
{32}8bx-4[8:1],7x,6x,5x,4x,3x,2x,1x,
{48}8x,Cf,,
{16},,,
25,,3,5,1-5[32:3],,3,,6-1[8:1]/1,,7,,6/2-4[32:3],,,,
27,,6,5,8-4[32:4],,6,,3-8[8:1]/8,,2,,3/7-5[32:3],,,,
17,,3,3,4,,1,,28,,4,,
7<5[8:1]/1p5[32:3],,5,,7bxq3[32:3]/1bx>3[8:1],,,,7bxv4[8:1]/1bxv4[8:1],,,,
7bx<4[8:1]/1bx>4[8:1],,,,1bx/7bx,,,,
25,,3,5,4,,5-8b[8:1]/6,,4/7-4[8:1],,,,,,,,
74,,6,4,5,,4-1b[8:1]/3,,5/2-5[8:1],,,,,,,,
87,,6,5,6,,3,4,3,,7,5,6,,2,4,3,4,3,4,8,7,8,7,
{32}1b,2,3,4,5,6,7,8,1,2,3,4,5,6,7,8,
{16}1b/Cf,,,,,,,,2-5[8:1]/6-1[8:1],,37,,26,,,,
{16}8b/B3/B4/E4/A4/D4f/A3,,,,,,,,7-4[8:1]/3-8[8:1],,62,,73,,,,
{16}1b/B6/B5/E6/A6/D6f/A5,,,,,,,,6>3[32:3]/2,,3<6b[8:1]/7,,26,,1,,
1bx-3[32:3]*-4[32:3],,,,1bx,,,,5bx-8[8:1]/6bx-8[8:1],,,,5bx/6bx<5[8:3],,,,
6bx/2,,,,4h[8:1],,,,
2-8-6-4[32:9],,,,2/5h[8:1],,,,7x>5[8:3],,,,4h[8:1]/7,,,,
2x-8-6-4[32:9],,,,2/5h[8:1],,,,7x>5[8:3],,,,4h[8:1]/7,,,,
2x-8-6-4[32:9],,,,2/5h[8:1],,,,
7x-2[32:3],,,,7/3-6[8:1],,,,3/8-5b[32:3]*-3b[32:3],,,,8,,,,
34,,1,,35,,2,2h[8:1],,4h[8:1],,3,4,,81,,
65,,8,,64,,7,7h[8:1],,5h[8:1],,6,5,,18,,
35,,1,,46,,8,8h[8:1],,4h[8:1],,6,5-3[16:1],,8,,5b/7,,,
6b-2[16:1],,,1b,,
8bw4[8:1],,,,8b,,,,
3hx[8:4]/8b,,,E2,,,E4,,
6hx[8:4],,,E1,,,E7,,
4hx[8:4],,,E2,,,E8,,
6hx[8:3],,,E1,,,E7,,
5h[8:2]/6hx[8:2],,,,,,,,
2h[8:2]/4h[8:2],,,,,,,,
Ch[8:6],,,,,,,,,,,,7bx>2[8:1],,,,
{32}D8f/3hx[8:3],D1,D2,,
,,,,
