&title=Melodiniq
&artist=onoken a.k.a. owl*tree
&first=0.01
&des_5=MeLeDaniq
&lv_5=14+
&des=MeLeDaniq
&bpm=201
&chart_type=01
&inote_5=(193)
{1},
{2}E3h[2:3]/B3h[24:38],E4h[24:28]/B4h[24:30],
{2}E5h[24:20],,
{2}E7h[2:3]/B6h[24:38],E6h[24:28]/B5h[24:30],
{2}E5h[24:20],,
{12}A3,A4,A5,A6,,,E3,E4,E6,E7,,,
{12}B3,B4,B5,B6,B7,B8,B1,B2,B3,B4,,,
{2}B6h[2:4],B3h[2:3],
{2}B5h[2:2],B4hf[2:1],
{1}Ch[1:3],
{1},
{1},
{1}A2h[1:1]/A3h[1:1],
{2}A6h[1:2]/A5h[1:2],E8,
{2}E2,E4,
{2}A3h[1:1]/A4h[1:1]/D4h[1:1],E7/B7/B6,
{2}A6h[1:1]/A7h[1:1]/D7h[1:1],E2/B2/B1,
{8}A1h[8:15]/A2h[8:15]/D2h[8:15]/E2h[8:15],,,E5/B5/B4,,,B7,B6,
{8}B5,,C,,B4,B3,,B8,
{8},A7h[8:13]/A6h[8:13]/D7h[8:13],C,,B1,B2,,B3/B4/E4,
{8},B5,B6,,E1,,C,,
{8}A5h[8:13]/A4h[8:13]/D5h[8:13]/E5h[8:13],,,A8/D1/A1,,E1,B8/B1,C,
{8},E2,C,,E8,C,,,
{32}D1h[4:7]/B1,B2,B3,B4,B5,B6,B7,B8,{24}B1,B2,B3,B4,B5,B6,{16}B7,B8,B1,B2,{12}B3,B4,E5,
{16},D5h[16:11],{8},{4},,,
{16}3,,34,,3,4,3,,6,,75,,6-4[8:1],5,6,,
{16}1,2,3,,7-5[8:1]/1,,,,2,3,4,,36,,45,,
{16}6,,65,,6,5,6,,3,,24,,24,,3,,
{16}2,4,3,5,4,6,5,7,6,8,7,1,82,,,,
{16}6,,65,,6,5,6,,3,,24,,3<5[8:1],4,3,,
{16}8,7,6,,2>4[8:1]/8,,,,7,6,5,,63,,5,,
{16}6,4,5,3,4,2,3,1,2,8,1,7,8,6,7,5,
{16}6,4,6,4,7,3,7,3,8,2,8,2,1>5[4:1],,,,
{4}5qq5q5<1[4:3],7,8,1<5[4:1],
{4}5p5>1[4:2],1,8,7<3[4:1],
{4}3pp3p3>7[4:3],2,8,4<3[2:1],
{8}4,,5V37[4:1],,5-1[8:1],,5,,
{24}2,3,4,5-1[8:1],,,,,,1,8,7,6-2[8:1],,,,,,1,2,3,4-8[8:1],,,
{24},,,41,8,7,6v3<6[4:1],,,,,,6/2v7>2[4:1],,,,,,2,,,,,,
{8}6,5-7[8:1],3,4,3-1[8:1],6,7,8-4b[8:1],
{8}1,83,2,2,{16}1,,{32}1,8,7,6,5,4,3,2,1,8,7,6,
{16}5bp3[4:11]/1bp7[4:11],,,,{4},,,
{1},,
{2},Chf[128:1],
{8}E3/A2,E7/A6,E4/A3,A7/E8,B5/B4/E5,B8/B1/E1,C,A7h[8:8]/A8h[8:8]/E8h[8:8],
{8},B3,B4,A4,A5,B6,C,B3h[8:8]/B2h[8:8],
{8},A6,A5,D6,B5,B7,B6,Chf[8:5],
{1},
{8}6,5,4h[16:10]/6>8-4[4:2],,{2},
{8},35,,28,{16}1,1,1V75v7[8:3],,1,,1h[4:1],,
{8},,,3,{16}4,4,4-1-6-3[4:2],,4,,4h[4:2],,
{2},{8},56,45,34,
{8}3,4,5h[16:10]/3<1-5[4:2],,{2},
{8},64,,71,{16}8,8,8V24v6[8:3],,8,,8h[4:1],,
{8},,,,87,{16}E7,B6,B5,E5,A4h[8:5],,
{2},{16}E3,B2,B1,E1,A8f,,,,
{8}56,56,4,56,{16}3,4,3<6[8:1],,,,{24}7,8,1,
{8}2,48,{16}2h[4:1]/6,,{8},7,E3,6,{32}A4,D4,A3,D3,
{8}A2,7h[8:3]/1,1,,2,E7,3,{32}A5,D6,A6,D7,
{8}A7,28,28,37,46,37,46,46,
{16}3,5,2,,6,4,7,,2,4,1,,7,5,8,,
{24}1,2,3,45,6,7,81,2,3,45,6,7,{32}38,4,5,6,7,8,1,2,3q1q7b[4:3]*p5p7b[4:3],4,5,6,7,8,1,2,
{1}3,
(196)
{16}2-5[8:1],,,,2/7>7[8:4],,,,3,4,5-1[8:1],,,,A5,,
{16},,28,,3/1<5[4:1],,,,5,4,3,2,1h[4:1],,,,
{16}8,7,6,5,7-4-1[4:1],6,5,4,73,,3h[8:2],,,,8,,
{16}84,,83,,8>4[4:1]/2,,81,,{12}5,6,7,{16}8,,,,
{16}6-3[8:1],,,,16,,,,{12}2>6[4:1],,,{16}6,7,8,1,
{16}2-7[8:1]*-5[8:1],,,,A2,,,,6-3[8:1]*-1[8:1],,,,A6,,,,
{16}4>8v2[8:3],,4,,{12}8,7,6,{16}5,,5h[8:3],,,,1,,8>2[8:1],,8,,7<5[8:1],,7,,1>3[8:1],,1,,6,,6,,
{16}7-4[8:1],,,,7/2<2[8:4],,,,6,5,4-8[8:1],,,,A4,,
{16},,71,,6/8>4[4:1],,,,4,5,6,7,8h[4:1],,,,
{16}1,2,3,4,2-5-8[4:1],3,4,5,62,,6h[8:2],,,,1,,
{16}16,25,34,,3x<7[4:1],,,,{12}3,2,1,{16}8h[4:1],,,,
{16}6-2[8:1],,,,8>4[4:1],,,,{12}5,6,7,{16}8h[4:1],,,,
{16}6-2[8:1],,,,4>8[4:1],,,,{12}7,6,5,4h[8:3],,,
{16},,2,,2>6V42[2:1]*<6V82[2:1],,,,2,,,,,,,,
{16},,1,,1V35-1b[8:3]*V75-1b[8:3],,,,1b,,,,,,,,
(206)
{24}A2,E2,B1,B8,E8,A7,A6,E6,B5,B4,E4,A3,{16}E1,B1,B2,E3,{12}A7,E7,B6,
{12}A3,E3,B2,{16}E5,B5,B6,E7,{24}A3,E4,B4,B5,E6,A6,A7,E8,B8,B1,E2,A2,
{32}A4,D5,A5,D6,A6h[8:1],,,,A3,D4,A4,D5,A5h[8:1],,,,A2,D3,A3,D4,A4h[8:1],,,,A1,D2,A2,D3,A3h[8:1],,,,
{16}8,,8h[8:1],,2,,2h[8:1],,4,,4h[8:1],,6,,,,
(209)
{24}A3,E4,B4,B5,E6,A6,A7,E8,B8,B1,E2,A2,{16}E5,B4,B3,E3,{12}A6,E7,B7,
{12}A2,E3,B3,{16}E1,B8,B7,E7,{24}A2,E2,B1,B8,E8,A7,A6,E6,B5,B4,E4,A3,
{32}A1,D1,A8,D8,A7h[8:1],,,,A2,D2,A1,D1,A8h[8:1],,,,A3,D3,A2,D2,A1h[8:1],,,,A4,D4,A3,D3,A2h[8:1],,,,
{16}5,,5,,3,,3,,1,,1,,7,,,,
(212)
{24}A1,E1,B8,B7,E7,A6,A5,E5,B4,B3,E3,A2,{16}E8,B8,B1,E2,{12}A6,E6,B5,
{12}A2,E2,B1,{16}E4,B4,B5,E6,{24}A2,E3,B3,B4,E5,A5,A6,E7,B7,B8,E1,A1,
(215)
{32}A3,D4,A4,D5,A5,D6,A6,D7,A7,D8,A8,D1,A1,D2,A2,D3,A3h[8:1]/A5,D6,A6,D7,A7,D8,A8,D1,A1,D2,A2,D3,A3,D4,A4,D5,
{32}A5h[8:1]/A7,D8,A8,D1,A1,D2,A2,D3,A3,D4,A4,D5,A5,D6,A6,D7,A7h[8:1]/A1,D2,A2,D3,A3,D4,A4,D5,A5,D6,A6,D7,A7,D8,A8,D1,
(218)
{16}A1/3,,,,3V17[4:1],,3,,,,5,,5v8[8:1],,,,
{16}2,,2>5[8:1],,,,7,,7w3b[8:1],,,,7b,,,,
(221)
{16}2,,,,2V46[4:1],,2,,,,8,,8v5[8:1],,,,
{16}3,,3>8[8:1],,,,5,,{24}5x-2b[8:1],D6,A6,D7,A7,,,,,,,,
(224)
{16}4,,2,3,2h[8:1],,4,,{12}3,4,2,6,5,7,
{16}4,,6,5,7h[8:1],,6,,5,8,5,8,4,1,4,1,
(227)
{8}23,23,14,14,58,58,67,67,
{8}75,74,73,72,62,26,35,35,
(230)
{16}4,4,4,4,4,4,4,4,4h[32:1],4h[32:1],4h[32:1],4h[32:1],4h[2:1],,,,
{32}A6,A5,,A3,A2,A1,A8,A7,{8}A6,3h[8:3],,,8>8z4v2[4:7]*<8s4v6[4:7],8,
{1}8b,
{1},
(236)
{8}Ch[8:1],,2h[128:1],4,8h[128:1],6,4h[128:1],2,15,3h[128:1],1,5h[128:1],7,5h[128:1],3,1h[128:1],
{8}4h[8:1]/8h[8:1],,2h[128:1],8,4h[128:1],6,8h[128:1],4h[4:1],
{8},1,26,8,37,2,3/6h[4:1],,
{8}Ch[8:1],,7,5h[128:1],1,3h[128:1],5,7h[128:1],84,6,8h[128:1],4,2h[128:1],4,6h[128:1],8,
{8}51,,47,13,47,28,56,5/6h[8:5],
{2},Cf,
{8}2h[32:1]/5,2h[32:1],2h[32:1],2h[32:1],3h[32:1]/E7,3h[32:1],3h[32:1],3h[32:1]/5,
{8}3h[32:1],3h[32:1]/5,3h[32:1]/5x,3h[32:1],4h[32:1]/E7,4h[32:1],4h[32:1],4h[32:1],
{8}7h[32:1]/4,7h[32:1],7h[32:1],7h[32:1],6h[32:1]/E3,6h[32:1],6h[32:1],6h[32:1]/4,
{8}6h[32:1],6h[32:1]/4,6h[32:1]/4x,6h[32:1],5h[32:1]/E3,5h[32:1],5h[32:1],5h[4:1],
{8},1,3h[4:1]/7,,8h[32:1],8h[32:1],7h[32:1],7h[32:1],
{16}6,,4,5,4,,3,,5,4,5,,3h[8:4]/6,,6,,
{16},,,,6,,6,,5,,5,,4,,4,,
{16}3,5,3,5,2,6,2,6,1,7,1,7,8,8,8,8,
(240)
{16}8h[4:1],,,,4,15,26,37,4V28[4:1]/8,,,,4,,,,
{16}6-2[8:1],,,,5-1[8:1],,,,4-8[8:1],,,,2-7[8:1],,,,
{32}A7/2,D7,A6,D6,A5h[8:3],,,,2-5[8:1],,,,,,,,2,D6,A6,D7,A7h[8:3],,,,2<7[8:1],,,,,,,,
{32}2,D7,A6,D6,A5h[8:3],,,,2>5[8:1],,,,,,,,2,D6,A6,D7,A7,,,,2,,,,,,,,
{16}6,5,6,5,6h[4:1],,4,,3V17[4:1],,,,35,,,,
{16}6-3[8:1],,6,,4-1[8:1],,4,,2-7[8:1],,2,,8,,,,
{16}E7h[16:4]/A1,B6h[16:3]/A2,B5h[16:2]/A3,,,,E3h[16:4]/A8,B3h[16:3]/A7,B4h[16:2]/A6,,,,E7h[16:4]/A1,B6h[16:3]/A2,B5h[16:2]/A3,,
{16}4xw8[8:1],,,,4,,,,2-5[8:1],,6-1[8:1],,2,,6,,
{16},,,,15,84,73,62,5V71[4:1]/1,,,,5,,,,
{16}3-7[8:1],,,,4-8[8:1],,,,5-1[8:1],,,,7-2[8:1],,,,
{32}A2/7,D3,A3,D4,A4h[8:3],,,,7-4[8:1],,,,,,,,7,D4,A3,D3,A2h[8:3],,,,7>2[8:1],,,,,,,,
{32}7,D3,A3,D4,A4h[8:3],,,,7<4[8:1],,,,,,,,7,D4,A3,D3,A2,,,,7,,,,,,,,
{16}2,3,2,3,2h[4:1],,,,6V82[4:1],,,,64,,,,
{16}3-6[8:1],,3,,5-2[8:1],,5,,1-6[8:1],,1,,7,,,,
{16}E3h[16:4]/A8,B3h[16:3]/A7,B4h[16:2]/A6,,,,E7h[16:4]/A1,B6h[16:3]/A2,B5h[16:2]/A3,,,,E3h[16:4]/A8,B3h[16:3]/A7,B4h[16:2]/A6,,
{16}5xw1[8:1],,,,5,,,,3v5[8:1]/7v5[8:1],,37,,37,,,,
{16}26,,26,,,,15,26,3/7V53[4:1],48,51,,37,,,,
{8}2-6[8:1],2,1-5[8:1],1,8-4[8:1],8,7,7,
{32}3,2,1,8,7,,,,5,,,,5h[8:1],,,,2,3,4,5,6,,,,7,,,,7h[8:1],,,,
{32}2,1,8,7,6,,,,4,,,,4h[8:1],,,,8,1,2,3,4,,,,6,,,,6h[8:1],,,,
{16}1,8,7,6,3,2,1,8,5,4,3,2,7,6,5,4,
{16}7,3,7,3,8,4,8,4,1,5,1,5,2,6,2,6,
{24}15,2,3,4,5,6,7,8,1,2,3,4,5,6,7,86,5,4,3,2,1,8,7,6,
{32}15,8,7,6,5,4,3,2,1,8,7,6,5,4,3,2,15,,,,,,,,1b>1>1<1V75V31v3[4:25]/5b<5<5>5V31V75v7[4:25],2b/6b,3b/7b,4b/8b,5b/1b,,,,
{1},
{1},
{1},
{1},
{1},
{1},
{2},2b-6b[4:22],
{24},,,,,,,,,B1,,,,B3,,,,B8,,,,B4,,,,E8,,,,,E5,,,,,A7,,,,,,A5,,,,,,,,,,,,,B6,
E
