&title=ファイブ連合国ボンバー
&artist=sio rin
&first=0.208
&des=凡絵
&lv_5=14
&inote_5=(192)
{4},,,,{1}Ch[2:3],
{4},,,,7h[4:1],
{12}3h[6:1],,6v8[24:5],{2}2v4[8:1],
{4}B7/C/B3/E8/A8/D1/A1/A4/D5/A5/E4/D6/D2,E7/B7/B8/B1/B2/B3/B4,{12},,,,,,,,,,,,E7,
E5,E6,E4,,,,,,,,,E3,
E5h[6:1],,{4}E4,
{12},,,,,,E7,E5,E6,E4,,,,,,,,,{6}E3h[6:1],
{12}E5,E4,,,,,,,,,E7,
E5,E6,E4,,,,,,,,,,,,,,,,,,{4}1bx>5b[6:1]*<5b[6:1],
{2}1bx,
{4}5h[4:1],{12}3,4,3,{4}4,{12}6,5,6,
{4}5,{24}4,3,{12}2,8,{4}1,{24}8,7,{12}6,4,
{4}5,{12}3,4,3,{4}4,{12}6,5,6,
{4}5,{12}4>1[6:1],5,4,{4}5,{12}8<5[6:1],1,8,
{4}1,{12}3,4,3,{4}4,{12}6,5,6,
{4}5,{24}4,3,{12}2,8,{4}1,{24}8,7,{12}6,4,
{4}5,{12}3,4,3,{4}4,{12}6,5,6,
{4}5,{12}4>1[6:1],5,4,{4}5,{12}8,1,8,
{4}1,7q4<6[3:1]/1<8-5>3[3:1],,,{1}C/B5/B4/A5/D5/A4/E3/E7/B7/B8/E1/B1/B2/E5,
{12},,,,,,5/4,B5/B4/B3/B2/B8/B1/B7/B6/C,,,,,,,,,,,A7/E8/B7/E7/B6/E6/A6/D7,
B8/B1/C/B5/B4,,{4}E2/A2/D3/A3/E4/B3/E3/B2,
{12},,,,,,E2/A2/D3/A3/E4/B3/E3/B2,B1/B8/C/B5/B4,{3}E8/B7/E7/B6/E6/A6/D7/A7,
{6},,,7/3,{12}E8/B8/B7/E7/B6,E5/E4/E3/E2,,,,,,,,,E8/B8/B1/E2/E6/B5/B4/E4,
B7/E7/B6,,,,,,,,{4}8bx>4b[6:1]*<4b[6:1],
{2}8bx,
{4}4h[4:1],{12}6<8[6:1],5,6,{4}5,{12}3>1[6:1],4,3,
{4}4,{24}5,6,{12}7,1,{4}8,{24}1,2,{12}3,5,
{4}4,{12}6<8[6:1],5,6,{4}5,{12}2<8[6:1],3,2,
{4}3,{24}4,5,{12}6,8,{4}7,{24}8,1,{12}2,4,
{4}3,{12}5<7[6:1],4,5,{4}4,{12}2>4[6:1],1,2,
{4}1,{24}8,7,{12}6,4,{4}5,{24}4,3,{12}2,8,
{4}1,{12}1>3[6:1],8,1,{4}8,{12}6<8[6:1],5,6,
{4}5,{24}4,3,{12}2,8,{4}1,{24}8-4[8:7],7,{12}6,4,
{1}5-2p6-1[8:5],
{4}B7/C/B3/E8/A8/D1/A1/A4/D5/A5/E4/D6/D2,E7/B7/B8/B1/B2/B3/B4,,,,1-5[8:3]/8v5[8:3],
{24},,,,,,,,,,,,7x,
3x,6x,4x,7x,3x,6x,4x,7x,3x,6x,4x,7x,3x,6x,4x,7x,3x,6x,4x,7x,3x,6x,4x,
8x,2x,7x,3x,8x,2x,7x,3x,8x,2x,7x,3x,8x,2x,7x,3x,8x,2x,7x,3x,8x,2x,7x,3x,
1x,1x,8x,2x,1x,1x,8x,2x,1x,1x,8x,2x,1x,1x,8x,2x,1x,1x,8x,2x,1x,1x,8x,2x,
7,6,{12}5,{24},,2,3,{6}4,{12}7h[4:1],{24}2,3,4,5,{4}6,
{8}8/E5,3/B7,6/E1,2/E4,,,{4}B7h[8:1]/E7h[8:1]/B6h[8:1]/B2h[8:1]/B3h[8:1]/E3h[8:1],
{8}2x-7<3[2:1],8xp1[8:3],2,8,{32},,,,,,,,D3,A2,D2,1x<8-5>4[32:13],D1,8x>1-4[32:11],D8,A7,
{4}D7,{8}E1h[32:0],Ch[32:0],{4}E5h[32:1],{8}5-2[8:1],8-5[8:1],
5,8,1>7[4:1],7,,8-4[8:1],{16},,1,2,
{4}3-7[8:1],3b/5b-1[8:1],5b,B1h[8:1]/E1h[8:1]/B8h[8:1]/B4h[8:1]/B5h[8:1]/E5h[8:1],
{8}2x-6[8:1],6x-2[8:1],A2,A6,8-4[8:1],4-8[8:1],8-6b[8:1],A4,
{4}A8h[8:0]/1-5b[8:1],A1h[8:0]/2-4b[8:1],A2h[8:0],3v1>1[16:15],
3,5,{16}E7,,,E8,,,{8}E1,
{4}2x>6[12:7],D8h[4:1]/A8h[12:5]/D1h[12:7],{8},,,,7-4[8:1],
4-1[8:1],A7,A4,3-8[8:1],8-5[8:1],A3,A8,
{4}1-4[8:1],{8}1b/7b-3[8:1],8,{4}7b,2xh[8:1]/6xh[8:1],
{384}D7/B7/D3,B2,{192}C,{16},{64},,,{192},{8}1,8,1,{384}C/B2,D3,B7,D7,{16},{64},,,{192},{8}7xh/3xh,{4},{384}D7/B7/D3,
B2,{192}C,{16},{64},,,{192},{8}5,4,5,{384}C/B2,D3,B7,D7,{16},,,{64},,,{192},{4}E7h[8:1]/B7h[8:1]/B6h[8:1]/B3h[8:1]/E3h[8:1]/B2h[8:1],
{8}2x-5[8:1],5x-8[8:1],A2,A5,6-1[8:1],1-4[8:1],A6,A1,
8-5[8:1],7,8b/2b-6[8:1],3,{4}2b,{8}4-7[8:1],1-4[8:1],
4,1,8<2[4:1],2,8,1-5[8:1],{16},,8,7,
{4}6-2b[8:1],6b/4b-8b[8:1],{32}4b,B4h[32:0],Cfh[32:0],B8h[32:0],,,,,,,,,,,,,{4}5h[4:1],
{12}3>1[6:1],4,3,{4}4,{12}6<8[6:1],5,6,
{4}5,{24}4,3,{12}2,8,{4}1,{24}8,7,{12}6,4,
{4}5,{12}3>1[6:1],4,3,{4}4,{12}7>1[6:1],6,7,
{4}6,{24}5,4,{12}3,1,{4}2,{24}1,8,{12}7,5,
{4}6,{12}4>2[6:1],5,4,{4}5,{12}7<5[6:1],8,7,
{4}8,{24}1,2,{12}3,5,{4}4,{24}5,6,{12}7,1,
{4}8,{12}8<6[6:1],1,8,{4}1,{12}3>1[6:1],4,3,
{4}4,{24}5,6,{12}7,1,{4}8,{24}1,2,{12}3,5,
{4}1/7,7q4<6[3:1]/1<8-5>3[3:1],,,,C/B5/B4/A5/D5/A4/E3/E7/B7/B8/E1/B1/B2/E5,
,,,,{2}B7/E7/B6/B5/E5/B4/B3/E3/B2/C,
,E8/B7/B6/E6/B5/B4/E4/B3/B2/E2/B1/B8/C,
,E1/B8/B7/B6/B5/E5/B4/B3/B2/C/B1,
,E8/B7/B6/B5/B4/E4/B3/B2/B1/B8/C/E1/E5,
,B7/B8/B1/B2/B3/B4/B5/B6/C,
{4},1bx>5b[6:1]*<5b[6:1],{2}1bx,
{4}7h[4:1],{12}2>5[8:1],5<7[24:1],2,{4}5,{12}8<5[8:1],5>3[24:1],8,
{4}5,{24}2,3,{12}4,6,{4}8/4h,{24}6,5,{12}4,2,
{4}8/4h,{12}7<4[8:1],4>2[24:1],7,{4}4,{12}1>4[8:1],4<6[24:1],1,
{4}4,{24}7,6,{12}5,3,{4}1/5h,{24}3,4,{12}5,7,
{4}1/5h,{12}1>4[8:1],4<6[24:1],1,{4}4,{12}7<4[8:1],4>2[24:1],7,
{4}4,{24}1,2,{12}3,5,{4}7/3h,{24}5,4,{12}3,1,
{4}7/3h,{12}8<5[8:1],5>3[24:1],8,{4}5,{12}2>5[8:1],5<7[24:1],2,
{4}5,{24}8,7,{12}6,4,{4}2/6h,{24}4,5,{12}6,8,
{4}2/6>5v7>8[8:3],1v4>1<8-5[8:3]*v4>1<8-5[8:3],,,{1}7q4<6b[3:1]/1<8-5>3b[3:1],
{2},1-5b[6:1],
{24}7bx,3bx,6bx,4bx,7bx,3bx,6bx,4bx,7bx,3bx,6bx,4bx,8bx,2bx,7bx,3bx,8bx,2bx,7bx,3bx,8bx,2bx,7bx,3bx,
8bx,2bx,1bx,8bx,2bx,1bx,8bx,2bx,1bx,8bx,2bx,1bx,8bx,7bx,6bx,8bx,7bx,6bx,8bx,7bx,6bx,8bx,7bx,6bx,
5bx,4bx,5bx,4bx,5bx,4bx,5bx,4bx,5bx,4bx,5bx,4bx,5bx,5bx,5bx,5bx,5bx,5bx,5bx-7b[8:1],5bx,5bx,5bx,5bx,5bx,
{4}5bx-3b[8:1],5bx-8b[8:1],5bx-2b[8:1],5bx-1b[8:1],
{32}5bx,B5h[32:0],Cfh[32:0],B1h[32:0],{4},,{16},,{4}B3h[8:1]/B7h[8:1]/E3h[12:1]/E7h[12:1]/B6h[24:1]/B2h[24:1],
{8}1v4[8:1],1,5v8[8:1],5,3v6[8:1],3,7v2[8:1],7,
{4}3V57V13<1>4[4:3],{8}A5h[8:0]/D6h[8:0]/D5h[8:0],A7h[8:0]/D7h[8:0]/A6h[8:0],{4}A8h[8:0]/D1h[8:0]/D8h[8:0],{8}A7,D2,
5v8[8:1],5,1v4[8:1],1,7v2[8:1],7,3v6[8:1],3,
{4}8<6v4<5[0.3125##0.625]*>2v4<5[0.3125##0.625],E8h[8:0]/E1h[8:0]/B8h[8:0]/B7h[8:0]/E7h[8:0]/B1h[8:0]/E2h[8:0]/A7h[8:0]/A8h[8:0]/A1h[8:0]/D2h[8:0]/D1h[8:0]/D8h[8:0]/D7h[8:0],,A5h[4:1],
{8}2x-6[8:1],6x-2[8:1],A2,A6,8-4[8:1],4-8[8:1],8-6b[8:1],A4,
{4}A8h[8:0]/1-5b[8:1],A1h[8:0]/2-4b[8:1],A2h[8:0],3v1>1[16:15],
3,5,{16}E7,,,E8,,,{8}E1,
{4}2x>6[12:7],D8h[4:1]/A8h[12:5]/D1h[12:7],{8},,,,7v2[8:1],
7,3v6[8:1],3,8v5[8:1],8,4v1[8:1],4,
{1}1-3-7-2-5-1b[8:5],
{48}A3,E4,B4,B5,E6,A6,{8}D7h[32:7],{48},,,,,,A7,E8,B8,B1,E2,A2,{8}D3h[32:11],{48},,,,,,,,,,,,A3,E4,B4,B5,E6,A6,
{32}D7h[8:1],{96},,,,,,,,,,,,A7,,E8,,B8,,B1,,E2,,A2,,{32}D3h[8:1],{96},,,,,,,,,,,,{48}A3,E4,B4,B5,E6,{24}A6,,,,,{4}B2h[8:1]/B6h[8:1]/E3h[12:1]/E7h[12:1]/B7h[24:1]/B3h[24:1],
{8}7x-4[8:1],4x-1[8:1],A7,A4,3-8[8:1],8-5[8:1],A3,A8,
1-4[8:1],2,1b/7b-3[8:1],6,{4}7b,{8}5-2[8:1],8-5[8:1],
5,8,1>7[4:1],7,1,8-4[8:1],{16},,1,2,
{4}3-7b[8:1],{8}3b/5b-1b[8:1],4,{32}5b,B5h[32:0],Cfh[32:0],B1h[32:0],,,,,,,,,,,,,{4}2h[4:1],
{12}7<4[8:1],4>2[24:1],7,{4}4,{12}1>4[8:1],4<6[24:1],1,
{4}4,{24}7,6,{12}5,3,{4}1/5h,{24}3,4,{12}5,7,
{4}1/5h,{12}2>5[8:1],5<7[24:1],2,{4}5,{12}8<5[8:1],5>3[24:1],8,
{4}5,{24}2,3,{12}4,6,{4}8/4h,{24}6,5,{12}4,2,
{4}8/4h,{12}8<5[8:1],5>3[24:1],8,{4}5,{12}2>5[8:1],5<7[24:1],2,
{4}5,{24}8,7,{12}6,4,{4}2/6h,{24}4,5,{12}6,8,
{4}2/6h,{12}1>4[8:1],4<6[24:1],1,{4}4,{12}7<4[8:1],4>2[24:1],7,
{4}4,{24}1,2,{12}3,5,{4}7/3h,{24}6,5,{12}4,{24}2,1-4[6:1],
{2}8p3[8:1],8q5[1:1]/6q2p3[1:1],
,,,E1/B8/B7/E7/C/E3/B2/B1/A6/B6/B3/A3/E6/B5/B4/E4,
,E8/B7/E7/B8/B1/E2/B2/E3/C/D7/D3/A2/A7,
,E8/B8/B1/E2/B2/B3/E3/C/B4/E4/E7/E6,
,E8/A2/A6/D7/A7/D5/E5/C/D3/D1/B8/B1/E2/E4/B4/B5/E6/E1/A3,
{4},,,,D8/A8/B8/B7/A7,
{8}B2/A2/E2/E3,7>2v4[8:9],{4}E6/B5/E5,B8/B7,
E3,{32},,,,,,,,,,,,,,,,A4/D4/D5/A5/A3/E4/E5,D6/E6/B5/B4/B3/E3/D3,A2/B2/B6/A6/Cf,D7/E7/B7/B8/B1/E2/D2,{8}A7/E8/E1/A1/D1/A8/D8,
E
