&title=右に曲ガール
&artist=はるふり
&first=0
&des_1=右方直行
&des_2=右方直行
&des_3=右方直行
&des_4=右方直行
&des_5=右方直行
&lv_5=13+
&des_6=右方直行
&des_7=右方直行
&des=右方直行
&inote_5=(175){1},
4q2[4:21]/5V71[4:21],,,,,{2},{4},{8},{16},
{4}8V63[4:1],,,{16},
2,4,2,4,
{8}1h[4:1],,6,5/7<4[8:1],,1,1,,
4-6[8:1],2-4[8:1],1,,,6,
{16}7,5,7,5,
{8}8h[4:1],,3,2/4<7[8:1],,1,1,,
2-4[8:1],8-2[8:1],7,,,
{16}3,4,3,4,3,4,
{8}1h[4:1],,6,5>2[8:1]/7,,8,8,,
7-4[8:1],1-7[8:1],2,,,5,
{16}6,4,6,4,
{8}8h[4:1],,3,2>5[8:1]/4,,8,8,,
5-1[8:1],7-4[8:1],6,,,
{16}2,4,2,4,2,4,
{8}3b-5[8:1],,7,7h[4:1],,5,46,,
5-7[8:1],,2,2h[4:1],,8,1,,
7-5[8:1],,1,1h[4:1],,4,35,,
4-2[8:1],,7,7h[4:1],,1,6,,
2-4[8:1]/8,,6,6h[4:1],,5,57,,
4/8-6[8:1],,3,3h[4:1],,5,4,,
2/4-6[8:1],,1,1h[4:1],,8,28,,
7/5-3[8:1],,6,6h[4:1],,2,5,,
1b/8b<5[8:1],,2,2h[4:1],,4,34,,
5-3[8:1],4,7,7h[4:1],,1,28,,
3-5[8:1],3,8,,7-1[8:1],,4,,
28,,37,3-5[8:1]/7-1[8:1],,,,,
4>1[8:1]/8,,6,6h[4:1],,8,78,,
1<6[8:1],8,2,2h[4:1],,5,3,,
6-2[8:1],6,1,,3<5[8:1],,1,,
47,,56,5>3[8:1]/6-2[8:1],,5b/6b,,,
{4}1-4[8:1],7,1-4[8:1],3,1-4[8:1],4pp3[16:5],7,
8<5[8:1],2,8<5[8:1],6,8<5[8:1],5qq5[16:5],2,1-3[8:1]*-7[8:1],,
4-1[8:1],6,4-1[8:1],2,4-1[8:1],1V35[4:1],7,6,
{8}5-1[8:1]/7,,6,,24,2/4-8[8:1],,3,,
27,,4q8[8:1]/5p1[8:1],3b/6b,,,,
7-4[8:1],8,3,1,8-3[8:1],7,5,7,8qq3[16:5],4,8,,2-5[8:1],,7,,
6-2[8:1],7,8<5[8:1],,3-7[8:1],2,1>4[8:1],,61,7,
8qq8[4:1],1pp1[4:1],,,,,
6-1[8:1],5,2,4,5-2[8:1],6,8,6,5pp2[16:5],1,5,,3-8[8:1],,6,,
7-4[8:1],8,17,3,2h[8:1],8h[8:1],5,4b-8[8:1]/6b-2[8:1],,,,,
3-5[8:1]/7-4[8:1],,37,,
2>5[8:1],1,6,8,1<6[8:1],2,4,2,1pp6[16:5],5,1,,7p3[8:1],,2,,
5-1[8:1],4,6,,8-5[8:1],7,2,,
1-4[8:1],4V25[8:3],1,6v5[8:1],,,,,
7v4[8:1],8,3,1,8>3[8:1],7,5,7,8qq3[16:5],1,2,,4V28[16:3],,7,,
5-3[8:1],6,7-3[8:1],8,1h[4:1],,4,24,,
5-1[8:1],6,4,3-8[8:1]*-6[8:1],,3,,
{16}1b,7,1,7,1,7,1,7,2,6,2,6,2,6,2,6,3,4,3,4,3,4,3,4,
{8}2h[8:1],1h[8:1],8h[8:1],7h[8:1],
5-2[8:1],8-4[8:1],5,8>5[4:1],,5,6,7h[4:1],,
6>3[8:1],8,8,7-4[8:1],2,2,1,,
{16}6,5,6,5,7,,
{8}2-6[8:1],5,7,1-5[8:1],5,3,8<3[16:3],4,6,,
{32}2b,1,8,7,6,5,4,3,2,1,8,7,6,5,4,3,2,,,,
{16}7,1,{8}7,2,34,56,2b/7b,2b/7b,2b/7b-3[4:1],2b<3[8:33]/7b,,,,,
{1},,,,
{8}4h[4:1]/2h[4:1],,,5h[8:3]/3h[4:1],,,4,,
6h[4:1]/4h[4:1],,,7h[4:1]/5h[8:3],,,8,,
8h[4:1]/2h[4:1],,,3h[8:3]/7h[8:3],,,,
4b<7[4:1]/6b>3[4:1],,,,,1,,28,,
{8}6,5>2[8:1],47,8,7,1>4[8:1],26,7,8,5>2[8:1],47,6,6pp6[16:3],,4,,
2>5[8:1],3,1<6[8:1],8,4p8[8:1],3,7,6,5,5,14,2,
{16}7-4[8:1],5,6,,37,,,,
{8}2,1>4[8:1],28,7,6,5>2[8:1],47,8,7,1>4[8:1],26,5,5q2[16:3],,4,,
3-7[8:1],4,3/5-2[8:1],6,5/8V61[4:1],,1-5[8:1],2h[8:1],,
3,46,7,{16}2-5[8:1],8,3,,26,,,,
{4}7-4[8:1],4,1-6[8:1],5,3-8[8:1],2,5-2[8:1],6,
8>3[8:1],2,1q5[8:1],5,6<1[8:1],4,5q3[16:3],8,
{8}7,1/7-1[8:1],,2-7[8:1],,6-2[8:1],,3-6[8:1],,5h[4:1],,
1,14,2,24,5,
6-4[8:1],6,1-5[8:1],1,7-3[8:1],7,2-5[8:1],2,
8b-2[8:1],8,3b-6[8:1],3,1b-5[8:1],1,4b-2[8:1],4,
7,7V53[16:3],1,7,8,1-5[8:1],2,1,
3,3V17[16:3],6,3,4,5-1[8:1],6,5,
8<5[8:1],8,2,,8-4[8:1],8,6,,8>3[8:1],8,2,,
5-2[8:1],5-8[8:1],,,
1,1>4[8:1],,5-2[8:1],,6<8[8:1],,1p5[8:1],,2,2h[8:1],
4,35,6,5/7,4,8<5[8:1],5pp4[4:1],8,,
3,3,2h[8:1],{16}4,3,{8}5,6,57,8,
5V71[4:1],3-6[8:1],5b,3b,,,
E
