&title=Repaint
&artist=RAISE A SUILEN
&first=0.03
&des=5how 1NVAD3R
&des_4=Band MEMBER
&des_5=5how 1NVAD3R
&clock_count=4
&lv_4=12+
&lv_5=14
&inote_4=(205)
{1},,,
{8}2-6[8:1],,7-4[8:1],,1-5[8:1],,8,8bqq4[8:9],
{1},{2},{8},,,3bqq8[8:5],
{1},{8}17,,28,,35,35,,6b/4b,,,
3-1[8:1],,5,,6-8[8:1],,4,,2-4[8:1],,8,8,,5b/7b,
,,34,,28,,56,,3,3,6,6,72,7/2h[4:1],,
8b,,3,3,,17,,6,,28,,3,,5,5,,46,,
3,3h[4:1],,8,,6h[4:1],,1-4[8:1],,,,5,5,,3,,
6,6,,28,,3,,17,,6,,4,4,,35,,
6,6h[4:1],,1,,3h[4:1],,8-5[8:1],,,,4,4,,6,,
3,3,,12,,4,,78,,5,,3,3,,24,,
5,5<8[8:1],,3,,2>5[8:1],,8,,7V15[4:1],,,,,4,,
6,6,,78,,5,,12,,4,,56,,8,,
4-8[8:1],,,6-1[8:1],,,3-8[8:1],,,
5-1[8:1],,,3,,8<1[1:1],,
{1}4h[1:1],{2},1b/8b,
{8}2h[4:3],,6,,6,,5,,3,4,2,,7,5,6,,
7h[4:3],,3,,3,,2,,7,1,8,,4,5,3,,
6,6,5,7,,7,4,,4,8,,8,3,,12,,
3h[4:1],,5,2,,6pp5[8:5],,1,,,2,,2,,3,,
4b/5b,,3,,46,4,7,,25,6,3,7,4-1[8:1],,,,
78,,6,,28,8,3,,47,3,6,2,5-7[8:1]*-2[8:1],,,,
8,,34,,1,1,6,,3,,3,5,,5,2-5[8:1],,,,
6-1[8:1],,,,4,,38,,27,,16,,27,2b/7h[1:2],,,,,
3,,3,,4,,4,,5,,5,5,,,
7,,3,8,3,,2>5[8:1],,8,,7<4[8:1],,1,1,,,
2,,6,6,4,,7-4[8:1],,2,,1-5[8:1],,6,6,,,
7,,3,3,5,,2-5[8:1],,7,,8-4[8:1],,3,3,,,
25,,8,8,47,,3,5,1,7,4,6,2,8,,,
17,,3,3,46,,7p2[4:1],,2,,1q6[4:1],,7,7,,,
47,,1,1,25,,6,4,8,2,5,3,7,1,,
8,8,,17,,24,,57,,28,,1,1,7,7bpp4[8:11],
{2},,,{8},,,5h[8:3],,4,4-8[16:3],,,,
6h[4:1],,1h[4:1],,7h[4:1],,2h[4:1],,8,,
37,37,,,,2,5,,6h[4:1],,3,7,,,1,,
1h[4:1],,5,2,,,2qq5[4:3],,5,,6,,6,,,,
7,,7,5,,5,6,,3,,3,5,,5,3,4,
2,,2,8,,8,1,,6,,6,8,,8,5,1,
4-7[2:1],,2,2,,3,3,,4p8[2:1],,5,5,,6,6,6,
1,1,7,7b,,2b,,5b,,4,4z8[4:1],4,,,,,
7b-5[8:1],,8-2[8:1],,4-6[8:1],,3,3,,
47,,8,{16}2,1,2,,{8}3,3,
8-4[8:1],,1-3[8:1],,7-5[8:1],,4,4h[4:1],,
6,,36,7,8,1,2,
3-6[8:1],,7-4[8:1],,1v3[8:1],,6,6,,
25,,1,{16}7,8,7,,{8}6,6,
1h[8:3],,5,5h[8:3],,2,2h[4:1],,
7<4[8:1],,2-6[8:1],,8-5[8:1]*-4[8:1],,,,
2b-4[8:1],,1-7[8:1],,5-3[8:1],,6,6,,
25,,1,{16}7,8,7,,{8}6,6,
1-5[8:1],,8-6[8:1],,2-4[8:1],,5,5h[4:1],,
3,,36,2,1,8,7,
6-3[8:1],,2-5[8:1],,8v6[8:1],,3,3,,
47,,8,{16}2,1,2,,{8}3,3,
7h[4:1],,5h[4:1],,4h[4:1],,2,,
2>5[8:1],,7-3[8:1],,1w5[8:1],,,,
3h[4:1]/7b-4[8:1],,,,6h[4:1]/2-5[8:1],,,,
6-4[8:1],,2-6[8:1],,8-4[8:1],,3,,
2-4[8:1],,8,,7-5[8:1],7,1,,
2>4[8:1],,8,,7<5[8:1],7,1,,
2h[4:1]/4-8[8:1],,,,7h[4:1]/5-1[8:1],,,,
6<1[8:1],,4p7[8:1],,5-1[8:1],,3,,
28,2,17,7,2v5[8:1]/8v5[8:1],,,,
46,6,35,3,6v8[8:1]/4v2[8:1],,,,
7h[4:1]/3b-8[8:1],,,,2h[4:1]/6-1[8:1],,,,
2-8[8:1],,6-2[8:1],,4-8[8:1],,7,,
6-1[8:1],,4,,3-8[8:1],3,5,,
6<1[8:1],,4,,3>8[8:1],3,5,,
6-1[8:1],,4-8[8:1],,7<4[8:1],,2-6[8:1],,
1-5[8:1],,8-4[8:1],,7-3[8:1],,1,1bs5[4:1]*-4[4:1],
E
&inote_5=(205)
{1},,,
{16}4,6,4,6,3,5,3,5,2,,1-5[8:1],,8,,7/1bpp7[8:9],,
{1},{4},,,
{8},5bV38[2:1]*V72[2:1],{1},
{16}7,,7,,3,,6,,2,7,4,6,2,7,1b,,
{8},6,7<4[8:1],,7/2-8[8:1],,2,5,6-3[8:1],,6,8w4[8:1],,8,,6b/2b,
,2,6/4,7,2,8,3,6,
{16}1,2,6,7,2,3,7,8,4,,4h[4:1],,,,7b,,
{8},4h[16:1],5,3,6,6,5,7,4,4,5,3,7,7,1,6b,,
2/7h[16:1],1,6,3,4,7,8,2-5[8:1],6,2,7,8-4[8:1],1-3[8:1],8,1b,,
5h[16:1],4,6,3,3,4,2,5,5,4,6,2,2,8,3b,,
7/2h[16:1],8,3,6,5,2,1,7>2[8:1],2,7,3,4-8[8:1],5-7[8:1],4,5b,,
1h[16:1],8,2,7,7,6/8,5,1,1,8/2,3,6,6,57,8b,,
4h[16:1],7,8,3-7[8:1],3,5v8[8:1],5,2-4[8:1],2,1<5[4:1],1,{16}5,4,3,2,1,,{8}2b,,
5h[16:1],4,6,3,3,2/4,1,5,5,4/6,7,2,2,13,4,
8,5,5,7,4,4,6,3,3,5,2,2,14,14,2/5,5/2,1b/6b,,
{16}2,8,2,8,3,7,3,7,4,6,4,6,
{2}5>8[4:1],{16}6,5,4,3,2,1,8,7,
{8}1b/6,2,7/3h[16:1],6,4/5,3,1/2h[16:1],8,7-3[8:1],7,4-1[8:1],4,6-1[8:1],6,2,2,
5/2,6,3/7h[16:1],2,8/1,7,5/6h[16:1],4,3-7[8:1],3,8-5[8:1],8,2-5[8:1],2,6,6,
4,3,5,6h[4:1],,3,2h[4:1],,7-5[8:1],1,7,2V48[4:1],4,2,5,,
6,7,1,7-2[8:1]/2-5[8:1],,7/2q7[8:1],,4b,,5,8,8,{16}5,4,3,2,8,7,6,5,
{16}2b,,6,,3,4,2,,7,,1,,6,6,4,,
5,,2,,7,8,6,,1,,7,,3,4,58,,
7,,2,,5,4,6,,1,,7,,2,2,4,,
3,,6,,2,8,1,,7,,3,,6,5,24,,
{8}1-3[8:1],1,6,7,8-6[8:1],8,5,4,3-7[8:1],7>4[8:3],3,6,,{16}6,7,8-4[8:1],,
{8},3-6[8:1],,7-3[8:1],,1-4[8:1]*-5[8:1],,1,,6b,2,71,62,3b,7,82,7h[8:13]/3b>4[8:11],
{1},{4},,,{8},6b,,
{16}2,4,3-8[8:1],,{8}3,7<5[8:1],7,1,1,4-6[8:1]/8-2[8:1],,4/8qq1[8:3],,3,3,4,5b,,
{16}4,8,3v6[8:1],,{8}3,7-1[8:1],7,5,5,4-7[8:1],3,2,1,8v3[8:1],7,6,5b,,
{16}6,4,7-4[8:1],,{8}7,3-1[8:1],3,7,7,8-4[8:1]/2-4[8:1],,2/8-6[8:1],,8v3[8:1],3-5[8:1],8,2b,,
{16}2,6,3p7[8:1],,{8}3,5-1[8:1],5,2,2,7<4[8:1],7,1,1,2qq1[6:1],2,5,5b,,
{16}6,8,7-4[8:1],,{8}7,3>1[8:1],3,5,5,8-2[8:1]/4-6[8:1],,8/4qq5[8:3],,7,7,8,1b,,
{16}8,4,7v2[8:1],,{8}7,3-5[8:1],3,8,8,7,6,5,4,6,5<7[8:1],4,3,,
{16}2,2,8-2[8:1],,,,{8}8/3-7[8:1],,3/6-4[8:1],,6/1v6[8:1]*v4[8:1],,1,,3/5,2/8-4[8:1],4/6,8bqq2[8:9],
{1},{4},,,
{8},6h[4:1],,4b,3bq8[2:1]/5bp8[2:1],,{4},,,
{16}1,2,3,4,6,7,8,1,4,3,2,1,
{8}7/8z4[4:3],1/6pp1[4:9],{1},{4},,
{8},2,,3,3,,,,
{4}4-8[8:1],6-2[8:1],7-4[8:1],8,
{16}8,1,2,3,
{8}4,,4,,4,,7/4,,6h[4:1]/4,,4,5h[4:1],4,,4h[4:1]/6,,
6,,6,,6,,16,,6/2h[4:1],,6,3h[4:1],6,,6h[4:1]/4,,
2,5,3,6,6,4,7,3,8,2,2,6,3,3,5,5,
46,46,37,8b/2b,,1b/6b,,3b/4b,
,4-1[8:1]/5q8[2:1],36,45,,,,,
{8}1b/2b-6[32:3],3,2/6,7,{16}7,6,{8}5,3/4,3,
2/8,7,6/5,{16}3,4,{8}2-5[8:1],1-6[8:1],2,1,
3h[8:1],5,6h[8:1],2,{16}1,1,{8}7,2>4[8:1],6v1[8:1],
2,6,5,{16}4/8,37,{8}2/6,5,5,1,
6,4,37,8-4[8:1],{16}2-5[8:1],2,{8}8-6[8:1],2,8,
4,5,3,{16}6,7,{8}8v3[8:1],2,8,1,
4h[4:1],2,3,4h[4:1],5,6,7,8-4[8:1]/2-4[8:1],
,2/8-6[8:1],,8-4[8:1],4b>1[8:1],8,5b,,
{8}8b/7b-3[32:3],6,7/3,2,{16}2,3,{8}4,6/5,6,
7/1,2,3/4,{16}6,5,{8}7-4[8:1],8v3[8:1],7,8,
6h[8:1],4,3h[8:1],7,{16}8,8,{8}2,7-5[8:1],3-8[8:1],
7,3,4,{16}5/1,62,{8}7/3,4,4,7,
3,5,62,1-5[8:1],{16}7-4[8:1],7,{8}1>3[8:1],7,1,
5,4,6,{16}3,2,{8}1,7,1,8,
2b,2h[8:1],4b,4h[8:1],6b,6h[8:1],8b,8,
{32}2b/1h[16:1],3,{16}4,{8},{32}7b/8h[16:1],6,{16}5,{8},{4}4b-2[12:1]/5b-7[12:1],5b/4b,
{8}1-5[8:1],1,8,7,6-8[8:1],6,2,3,
4-8[8:1],4,6-2[8:1],6,1-4[8:1],1,7,7,
3>8[8:1],3,6,6,7<4[8:1],7,4,3,
2h[8:1],3,2h[8:1],3,2h[8:1],1,2h[8:1],8,
{8}3,7,65,4,8,2,31,4,
7h[8:1],5,2h[8:1],4,6h[8:1],8,3h[8:1],1,
8-4[8:1],7,3-6[8:1],2,7,7,1>3[8:1],8-4[8:1],
1-5[8:1],8<6[8:1],1,8,{32}1,2,3,4,5,6,7,8,1b,,,,,,,,
{8}8-4[8:1],8,1,2,3-1[8:1],3,7,6,
5-1[8:1],5,3-7[8:1],3,8-5[8:1],8,2,2,
6v1[8:1],6,3,3,2v5[8:1],2,5,6,
7h[8:1],6,7h[8:1],6,7h[8:1],8,7h[8:1],1,
{8}2,2,4,4,5,5,7,7,82,63,71,34,57,8-5[8:1]*z4[2:1]/1,72,8b,
