&title=Testify
&artist=void (Mournfinale) feat. 星熊南巫
&first=0.14
&des=Aza
&lv_5=15
&lv_6=15+
&lv_7=15+
&inote_5=(178)
{1},Ch[1:1],{2}4q5[4:13],6h[8:3],3h[8:3],2h[8:3],{4}1h[8:1],8h[8:1],7h[8:1],1h[8:1],{1}1h[1:1]
,{4}4h[4:5],E2,E3,E4,5h[8:3],{16},,4,5,{4}6h[8:5],7,{16}7,8,1w5b[2:1],,{4},,,
{24}1-5[8:1]/7,2/6,3/5,{8}4,1/7,8,{24}2/8-4[8:1],3/7,4/6,{8}5,8/2,1,{24}1v6[8:1]/7,2/6,3/5,{8}4,1/7,8,{24}1/7v4[8:1],2/6,3/5,{8}4,3/7,2,{24}1-5[8:1]/2,3/8,4/7,{8}5/6,1/6,7,{24}7/8-4[8:1],1/6,2/5,{8}3/4,2/8,1,{24}1v6[8:1]/8,2/7,3/6,{8}4/5,1/7,8,{24}1-5[8:1]/8,2/7,3/6,{8}4/5-1[8:1],1/B7,B8,{1}Chf[1:2],,2qq5b[4:3],{8}6h[8:3],,,{16}4,3,2,5,3,6,4,7,8,7,
{8}1-4[8:1]/6,6,{16}6/1-5[8:1],7,8,,{8}1/3-7[8:1],2,3/6,5,4-7[8:1]/8,8,{16}4-8[8:1]/8,1,2,,{8}4-1[8:1],3,4,3,2-4[8:1]/8,8,{16}2-8[8:1]/8,7,6,,{8}2/5,5,{16}6,4,6,,{8}3/7-5[8:1],3,{16}3/7-3[8:1],2,{8}1,7/8<5[8:1],1>4[8:1],8,1,{16}7,5,7,,{8}4-2[8:1],2-6[8:1]/6,4/8-6[8:1],6-4[8:1],8,1,{16}3,4,2,,{8}1V75[4:1]/5,7V51[4:1],1/4,3-5[8:1],2,3,{16}7,8,6,,{8}1/5-3[8:1],3-1[8:1]/7,5/6,7-3[8:1],8,7,{16}2,1,2,8,2,6,5,7h[16:13],{2}5>1[4:1],
{4},{8}8b,1,2>5[8:1]/E6,E5,5/2,6,E4`A3,,,E7`A7,4,3,{16}2/E8,B7,B6,E6,1,2,3,4,5/8,1,2,3,4,5/E2,6/B2,7/B3,8/E4,1,2,3,{8}4/8,E1,E2/E6,E3/E7,{16}8/E4,B4,B5,E6,E2/4>8[4:1],B1,B8,E8,{4}8<4[4:1]/4,B6/B7/E7,1qq6[4:1],{16}E3,B3,B4,,{4}5<8[8:1],E3/B2/B3/5-1[8:1],2>8[4:1]/5,2h[8:1],1pp4[4:1],{8}E7/D7,E6/D6,{16}B5,B6,B7,E8,E2/8qq4[2:1],B2,B3,B4,{8}8b,,,B2/B1/E2,,,{4}B5/B6/E6/3>8[8:1],
{8}3/E8,E7,E3,E4,{16}A6,D6,A5,D5,{4}A4/2-5[8:1],{8}2/7,6-1[8:1],,4/6,3-6[8:1],2,{16}3/E8,B8,B1,E2,4/8,7,6,5,4/1,8,7,6,5,4/E8,3/B7,2/B6,1/E6,8,7,6,{2}5qq2[4:1]/1qq6[4:1],{4},{8}7/8,1/6,5-1[8:1],2-5[8:1],5,2,{16}8b,7,6,5,8b,1,2,3,{8}8v5[8:1],4-1[8:1],8,4,{16}6,7,8,1,3b,2,8b,7,1b,2,3,4,5,6,7,8,1/6b,5,4,3,2,1,8,7,{8}6/3,4-8[8:1]/5,{16}2,3,4,,1,2,3/7,4/6,{8}5,2/8,
1/7,{4}5/6V84[4:1],{8}6/4<8b[4:1],3,{16}1,2,3,4,5,1,{8}2/3V17b[4:1],3/4h[4:1],,,5-1[8:1],4/6h[4:1],{4},{8}7/8,1>4[8:1]/6h[8:1],,1/4,{16}5,6,7,8,{8}1V75[4:1]/5,3/7-5[8:1],,2,{4}3h[2:1],{24},4,,2,1,8,7h[4:1],2,1,8,,6,
{4}5>8[2:7],{8},{16}E7,B6,B5,,,,E2,B2,B3,,D8,E8,A7,B7,D7,E7,A6,B6,D6,E6,A5,B5,E4,B3,B2,E2,E8,B7,B6,E6,E5,B4,B3,E3,E1,B8,B7,E7,E6,B5,B4,E4,E2,B1,B8,E8,{32}E5,E4,E3,E2,E1,E8,E7,E6,{2}Chf[2:1],
{4}2h[8:5],{8},3,3h[8:3],,8h[2:1],,7h[8:5],,,5,5h[8:3],,4h[2:1],,6h[4:1],,,3/6<3[8:9],,5,4,5,,{16}3,4,{8}5,,6,6,5,5,4h[8:5]/7h[4:1],,,2,2h[8:3],,8h[2:1],,1h[8:5],,,3,3h[8:3],,2h[2:1],,6h[4:1],,,1h[8:1]/5h[8:1],,4q6[8:7]`8q2b[8:5],{4},,,,{16}3,4,5,6,
{8}7/8<5[8:1],1/8-4[8:1],8,8,2-4[8:1],1/2-6[8:1],2/8,2,5-3[8:1],3/5-7[8:1],5,5,2-5[8:1],1-6[8:1]/8,2,1,4-7[8:1],3/4-1[8:1],4,4,6-8[8:1],6/8-4[8:1],6,2,3<6[8:1],3-8[8:1]/2,3,3,7-3[8:1],1/6-1[8:1],7,6,4-8[8:1],2/8,4/7,6,1/5-7[8:1],7,5/1,2,4-2[8:1]/8,6,1/4,8,5-1[8:1]/7,1-5b[8:1],4/5,3,2-6[8:1],3/4,2/8,1,4/7-3[8:1],5/6,3/7,2,1>4[8:1]/8,4/5,1/8<5[8:1],6,2/8,1,{32}1b,2/8,3/7,4/6,{8}5,
{12}3/4,2h[24:3],1h[24:3],,7h[24:3],8,1/6,5h[24:3],4h[24:3],,3h[24:3],4,4/5,2h[24:3],3h[24:3],,1h[24:3],7,6,8,7,6,5,4,3,1,1,6,8,8,2,4,4,7,5,5,{24}8,1,{12}2,6,6,4,5,4>1[8:1],6,5,4-8[8:1],6,5,4,{24}7,6,5,,,,7,6,5,,1/8,,2,3,4,,,,2,3,4,,5/6,,4/7,3/6,2/5,,,,4/7,3/6,2/5,,3/4,,2,1,2,8,2,8,7,6,5,4,1h[24:3],,,,6,5,7h[24:3],,,,2,4,3h[24:3],,,,5,6,7,8,2,3,4,5,7h[24:3],,,,1,8,2h[24:3],,,,,4,3,4,2,5,3,6,4,7,6,5,4,3,
{12}2b,1,1,2,8,8,2,7,7,2,6,6,5b,4,4,5,3,3,5,2,2,5,1,1,2/6,2/6,2/6,3/7,3/7,3/7,{24}8,7,6,4,3,2,7,6,5,3,2,1,{2}8z4[2:1],{24}D6,A6,D7,A7,D8,A8,D1,A1,D2,A2,D3,A3,{8}D4f,E6/B6,,E4/B3,,{16}7,8,7,1,7,1,7,5,7,5,6,4,5,3,4,2,3,1,5,3,4,2,{4}3<7[4:1],1-4[8:1],1-6[8:1],5-2-4[4:1],{12}7,8,1,8,7,6,5,6,3,4,3,2/5,
{16}1/6,,7/8,1/6,{4}2b-6[8:1]/5b-8[8:1],2/5,{16}1,2,1,2,1,8,7,6,5/2,3,4,5,6,7,8,1,{32}2,E1,3,B8,4,B7,5,B6,{12}6h,5h,7h,3h,4h,1h,8h,2h,8h,{16}2,3,4,5,1,2,3,4,5/1,2/6,3/7,4/8,1,2,3,4,5/1,2/6,3/7,4/8,{16}1h[8:1],,,2h[8:1],4-8[8:1],,5/6,,4>1[8:1]/7h[8:1],,,5h[8:1],4,,8,,7-4[8:1]/6,,,1h[8:1],7,,2,,2/8,7,6,5,4/1,8,7,6,5-1[8:1],,7,4,5<8[8:1],2,3,4,5/2v5[8:1]*v7[8:1],,1,3,{4}2,{8}4/8,1/2,3/5>2[8:1],6/C,{4}5,{24}5,4,3,{8}2,
{16}7-4[8:1]/8,1,8,1,7,,2-5[8:1],6,1,6,2,,6,7,8,1,{12}3,3,3/4h,3/5h,6,6,2h/6,1h/6,7h/8h,1h/6h,2h/5h,3h/4h,{16}2/5,3,4,5,6/1,2,3,4,5/8,1,2,3,4/8,7,6,5,3,1,2,1,4,1,2,1,5,1,2,1,{32}3,4,5,6,7,8,1,2,3/7,6,5,4,3,2,1,8,
{24}7b/5b-8[8:1],,6,,4,,5,,2,,2,,{8}1-5[8:1]/3-1[8:1],4,{4}1/3,{12}7/8-4[8:1],1,2,8<5[8:1],3,3,8,4,4,1/2v5[8:1],8,7,8v3[8:1]/2,7,6,7>2[8:1]/8,6,5,7/6,5,4,{24}3,4,3,4,3,,5,4,5,4,5,,2,3,4,5,8,7,6,5,8,1,2,3,
{4}8hb[8:1]/4hb[8:1],{32}1b,2/8,3/7,4/6,{8}5,3/4,8,1/7,{32}8b,1/7,2/6,3/5,{8}4,5/6,3/7,{32}1b,2/8,3/7,4/6,{8}5,1/8,2/7,{24}6,4,5,3h[24:3],,,,1,2,8h[24:3],,,,6,7,5h[24:3],,,,4,3,2,1,6,5,4,3,2h[24:3],,,,1,8,2h[24:3],,,,E8,E7,E6,E2,E3,E4,A7,A6,A5,A2,A3,A4,E1,C,
{12}E5f/3b>8[8:1],4,5,3-7[8:1],6,6,3,5,5,8-4[8:1],1,2-6[8:1],8,2,2,{24}5,,7,8,7,,{12}1/6-1-5[4:1],2,3,4-8[8:1]/6,,,4,,6,7V53[4:1],1,2,3-6[8:1],2,1,{4}8w4[8:1],8,{12}3/7,{24}2,1,{12}2,3/8,4/7,5/6,{16}4/7,B7,C,B3,{8}2h[8:3],{24}1b,8,7,6,5,4,3h[8:3],,,2b,1,8,7,6,5,{8}4h[8:3],Cf,,{24}5b,6,7,8,1,2,3h[8:3],,,4b,5,6,7,8,1,{8}2h[8:1],Cf,{16}7,8,7,8,5,4,5,4,1,2,1,2,8,3,7,4,{12}6h,5,6,2h,4,3,{24}8,7,6,1,2,3,7,6,5,2,3,4,
{16}7/5,E6,E7,E8,E1,E2,E3,E4,E5/7,8,1,2,3,4,5,6,7/E1,E2,E3,E4,E5,E6,E7,E8,E1/5,4,3,2,1,8,7,6,{4}5/4,3/2,1/8,6p3[2:1]/7,{2},1qq4[2:1],{16},,5<2[2:1],,,5,,,E1,,,E3,,,E5,,,,4>7[2:1],,,4,,,E8,,,E6,,,E4,,{8}1/5,2h[8:1]/6h[8:1],,4/8,3h[8:1]/7h[8:1],,1/2,4h[8:1]/5h[8:1],,7/8,4h[8:1]/5h[8:1],,{2}1>8b[4:1]/8,
{12}5b,1,4,2,8,4,7,5,{24}6,1,6,1,2,3,4,5,7,8,7,8,7,8,7,8,7,8,{12}1/6,2/5,3/4,2/5,{4}1-3[8:1]/6V48[4:1],1/6,{16}2,3,4,,1,2,{8}3/7,4/8,1v6[8:1]/5v2[8:1],8b,,,3b,2-4[8:1]/7-5[8:1],,2/7,,{24}1-5b[8:1],8,1,8,1,8,{16}1,Cf,{8}7b<3[4:1],,,{12}3,2,1,8/3,4/7,5/6,4/7,3/8,2/7,3/6,4/5,3/6,{4}2-6[8:1]/7-1[8:1],2/7,{12}3-5[8:1],5,,{4}3,{8}7/8,1/6,{16}2/5,6,7,8,1/4,5,6,7,{32}8/5,4,3,2,1,8,7,6,5,4,3,2,1,8,7/2,6/3,
{4}5b/4b,{8}7/8,5/6,{32}8b,1/7,2/6,3/5,{8}4,1/2,3/4,{32}1b,2/8,3/7,4/6,{8}5,7/8,3/4,{32}2b,1/3,4/8,5/7,{8}6,1/2,5/6,{32}7b,6b/8b,1b/5b,2b/4b,3b>4[1:2],
&inote_6=(178)
{1},Ch[1:1],{2}1>8[4:13],1h[8:3],2h[8:3],3h[8:3],{4}4,4,5,5,{1}6h[4:7],{4},E7,C,E3,{24}2h[4:1]/E6,B5,B4,{4}E4,{16}3,4,{4}3h[4:1],5h[4:3],{24}6,7,8,{8}1bp8[8:3],{4},,,
{32}1<5[8:1]/7,2/6,3/5,4hb[32:13],,,3,2,{8}1,{32},,3,2,1>5[8:1],8,7,6h[32:13],,,7,8,{8}1,{32},,7,8,1<5[8:1],2,3,4h[32:13],,,3,2,{8}1,{32},,3,2,1-5[8:1],8,7,6h[32:5],{8},1,{8},{32}8>4[8:1]/2,3/7,4/6,5hb[32:13],,,6,7,{8}8,{32},,6,7,8<4[8:1],1,2,3h[32:13],,,2,1,{8}8,{32},,2,1,8>4[8:1],7,6,5h[32:13],,,6,7,{8}8,{32},,6,7,8-4-8[4:1],1,2,3h[32:5],,,,,{4}8-6-4<5-3-1>8b[4:11],{1}Ch[1:2],,,{4}1>4[8:1]/7h[4:1],{16},,6,6,5qq6[4:1],7,7,4,5,3,2,1,
{8}8>3[8:1],7,8/6-1[8:1],{16}5,4,6,2,3,4,5/8,1,2,3,{8}1<6[8:1]/4,2>5[8:1]/3,1,2,{16}8,8,1-5b[8:1],{32}7,6,5,4,3,2,{8}1,4<7[8:1],3,2-5[8:1]/4,{16}1,8,2,6,7,8,1/4,5,6,7,{8}8<5[8:1]/5,1>4[8:1]/2,8,1,{16}7,5,6,4,5,3,4,2,8b>3[8:1],1,1,7,8<5[8:1],6,6,4,8-4[8:1],3,2-6[8:1],1,{8}8,2,{16}5>2[8:1],1,6,6,5-1[8:1],7,7,4,5,4,4,8,{8}8b,2b/6b,{16}1<6[8:1],8,8,2,1>4[8:1],3,3,5,1-5[8:1],6,7-3[8:1],8,{8}1,7,{16}4<7[8:1],8,3,3,4-8[8:1],2,2,5,4,{32}5,4,3,2,1,8,7,6,5,4,3,2,1,8,{4}3b/7b-3[8:1],
{16}4b/7b,Cf,2,1,2,,3/8,,2,1,2,1h[16:3],{32}2,3,4,5,{8}6,7/8,{32}7/8h[8:1],6,5,4,3,2,1,8,7,6/1,2,3,4/8,5,6,7,8,1,2,3,{8}4/8b,5/7,1-5[8:1]/6,2/5>2[8:1],8/1,7,6-1[8:1],5/1-5[8:1],4/6,3,2,1,{16}4/8,1/5,2/6,3/7,8,1,2,3,{8}4v7[8:1]/1>5[8:1],2/5-1[8:1],{4}1/4,{8}8h[4:1],{16}2,3,4,1,2,3,4-1[8:1],A5,A6,A7,{16}4b<7[8:1],8,8,2,{4}4,{24}8qq5[4:1],1,2,{8}3h[4:1],8b,,2,1/6,{16}7,8,7,,2/6<2[4:1],3,4,5,{4}6/Cf,{8}E6/B6,E5/B4,{16}7/8,1,2,3,4/6,7,8,1,
{8}2/3,{16}4,4,{8}5<8[8:1],2,{16}5/2,3,4,5,6,E7,E8,E1,E2/5qq8[4:1],E3,{4}5h[8:1],{8}2<7[8:1],3,2,{16}4,3,2,1,4/8,3/7,2/6,1/5,8,7,6,5,4/8,3/7,2/6,1/5,4,3,2,1,4/8,3/7,2/6,1/5,8,7,6,5,{4}4>1[8:1]/8,{16}4/8-4[8:1],7,{8}6-8[8:1],8,6-4[8:1],{16}3,2,1/6,8,7,3,2,1,8/4-8[8:1],3,{8}2-4[8:1],4,2-8[8:1],{16}7,6,5/2,4,3,7,6,5,4,3,2,1,{8}7/8,7/8,1/6,1/6,2/5,2/5,3/4,3/4,{16}2,5,4,5,1,6,{32}3,4,5,6,7,8,1,2,3h[4:1]/7,6,5,4,,2,1,8,7,6/2,5/1,4/8,
{8}3bq7[8:1],3/7q3<6b[4:1],,{4}1hb[8:1],{16}1,7/2,{4}8-4-8[4:1]/3h[4:1],{8}8<5b[8:1],2h[4:1],,{16},4,{2}3-7[8:1]/1-5[8:1],{8}4>8[4:1]/8,{4}2<8-4b[4:1]/6,5hb[8:1],{16}6,5/3,{4}4-8<5[4:1]/2h[4:1],{8}4,1,{4}1hb[4:1],{16},2/8,3/7,4h[16:5]/6,5,E5,E4,E3,{8}Ch[1:1],,,{16}1,2,{8}3,,4,4,{16}3,5,3,5,2,6,2,6,1,7,1,7,2,8,2,8,{24}1,2,3,{16}7/4,7,{24}2,3,4,{16}8/5,8,{24}3,4,5,1/6,8,7,6,5,4,3,2,1,{32}8,E4,E3,E2,E1,E8,E7,E6,E5,E4,E3,E2,E1,E8,E7,E6,{2}E5/Chf[4:1],
{32}8,1/7,2/6,3/5h[32:9],{4}4h[8:5],{32},6,7,8,{4}1h[8:7],{32},5,6,7,{8}8h[8:1],{32},7,6,5,{4}4h[8:5],{32},8,7,6,{4}5h[8:7],{32},3,2,1,{8}8h[8:1],{32},1,2,3,{4}4h[4:1],{24},3/6,2/7,{8}1h[4:5]/8h[4:5],,,,{1},
{32}2,3/1,4/8,5h[32:9]/7,{4}6h[8:5],{32},4,3,2,{4}1h[8:7],{32},5,4,3,{8}2h[8:1],{32},3,4,5,{4}6h[8:5],{32},2,3,4,{4}5h[8:7],{32},7,8,1,{8}2h[8:1],{32},1,8,7,{4}6h[8:5],{32},4,3,2,{4}1<4[1:1],{32},5,4,3,{8}2qq6b[8:5],{1},
{24}7bv4[8:1]/8b,1/6,2/5,{8}3-7[8:1]/4,{8}7,3,5-8[8:1],1v4[8:1],5,1,{16}6>3[8:1],3,7,2,{8}6<1[8:1],1-5[8:1],{4},{8}B2/B3,B6/B7,{24}2-6[8:1],3,4,{8}5/6-2[8:1],2,8,1-5[8:1],7v2[8:1],1,7,{16}4-1[8:1],1,3,8,{8}4<7[8:1],7>2[8:1],{4}4,{8}B5/B6,B2/B3,{16}8,4,8,4,1b,3b,8,4,8,4,8,4,1b,2b,8,4,8,4,8,4,1b,3b,8,4,8,4,8,4,1b,2b,8,7,6,2,6,2,7b,1b,6,2,6,2,6,2,7b,8b,6,2,6,2,6,2,7b,1b,6,2,6,2,6,2,{48}E7/E3,B7/B3,B4/B8,B1/B5,,,{8}Cf,
{12}1b/8b,{24}6b,5,6,5,{12},{24}2b,3,2,3,{12}1/4,{24}7,8,7,8,{12},{24}2,1,2,1,{12}3/8,5/6,5/6,,3/4,3/4,{24}5,6,7,8/2,3,4,{12}5,E7,E8,E6,E3,E2,E4,D7,D8,D6,D3,D4,D2,{24}8,8,{12}8,1h[12:1]/7,2h[12:1],3h[12:1],4h[12:1],5h[12:1],6h[12:1],{24}3,4,3,5,4,5,3,4,2,6,5,7,{12}4/8,1/2,3/8>3[8:1],,7/8,7/8,6,4/5,4-8[8:1]/5,,3/4,3/4,2,1-4[8:1],1,,6-2[8:1],6,5,{24}6,5,4,3,1,8,7,6,4,3,{12}2h[6:1]/7,,{24}4,3,5h[6:1],,,,8,6,1h[6:1],,,,7,6,5,8,1,2,6,5,3/4h[6:1],,,,1,8,2h[6:1],,,,{32}8,7,6,5/1,2,3,{48}4,{24}E8,E7,E6,E2,E3,{48}E4,B8,B7,B6,B5,B1,B2,B3,
{4}B4/Cf,{12}3,3,3,4,4,4,5,5,5,6b,6,6,7,7,7,8,8,8,1,1,1,2/8,2/8,2/8,3/7,3/7,3/7,{24}6,5,4,3,2,1,8/4,5,6,7,8,1,{4}2-6b[8:1]/5,{24}D2,B1,B7,{8}D7,{24}A5,D5,A4,D4,A3,D3,A2,D2,A1,D1,A8,D8,
{8}A7/Cf,5/6,,3/4-8[8:1],{8},{16}1,2,3,4,6,4,7,3,7,3,8,2,8,2,1,3,1,4,1,5,1,6,{8}1>4[8:1],{16}8<5[8:1],7,{8}1,8,2-8[8:1],{16}3,4,{8}2,{16}5,5,{12}6/7,7/8,1/8,3/4,4/5,5/6,4/7-4[8:1],8,8,2-5[8:1]/7,1,1,{24}2/5,6,7,8,{6}1b,{24},,6,5,6,5,7<4[8:1],,,,1/2h[4:1],8,7,,,,3-8[8:1],,,5,4,5,3,,,5,6,7,1,7,1,7,2,8,2,8,2,3,4,5,{12}6h,5h,B7,3h,4h,B2,5h,1h,E8,4h,{24}8h,7,6,5,4,3,2,1,8,7,1,2,3,4,2,3,4V28b[16:3],5,6,7,8,1,{4}2,
{16}6,,5h[8:1]/7h[8:1],,,5h[8:1]/6h[8:1],,,2h[8:1]/4h[8:1],,,1h[8:1]/8h[8:1],,,7-5[8:1]/8-4[8:1],,1,,7/8,,,3h[16:5],,,{16}2,1>4[8:1],8,7,6h[4:1],1,,,5,7,5,7,{12}4/6,4/6,4/6,{16}3,5,3,5,{12}2/6,2/7,2/8,{8}1/2,3/4,5/6,7/8,{24}7-3[8:1]/8-4[8:1],1/6,2/5,{8}3/4,7/8,,
{16}1h[4:1]/2,3,4,5,6,,1h[4:1]/2,3,4,5,6,,7,8,7,8,{12}1/6,2/7,3/8,2/4,3/5,4/6,1/8,2/7,3/6,5,4/6,3/7,{16}3,2,1,8,5,6,7,8,1/5,4,3,2,1/7,6,5,4,2,1,2,8,2,7,2,6,2,5,2,4,{32}2,3,4,5,6,7,8,1,2/7-3[8:1],6,5,4,{8},7b/8b,1>4[8:1],4>1[8:1],1-5[8:1],5-1[8:1],,6,7-4b[8:1],8v3[8:1],7,8<5[8:1],,{12}1/8,2,2,3>1[8:1],4,4,3/5<7[8:1],4,4,5/4-8[8:1],4,4,{4}4/1,{24}1,2,3,8,7,6,2v5[8:1],3,4,7v4<5-1b[4:1],6,5,{8}2,7,{4},
{32}8b,1/7,2/6,3/5,{8}4>1b[8:1],{32}8b,7,6,5,{4}4,{32}8b,7,6,5,4/8b,7,6,5,4/1b,8,7,6,5/1b,,,,1b,2,3,4,5/1b,2,3,4,5/8b,1,2,3,4/8b,,,,8b,7,6,5,4/8b,7,6,5,4/1b,8,7,6,{24}5/1,,,,3,4,3,,,,6,5,6,,,,2,4,3,4,2,3,4,5,6,,,,7,8,7,,,,2,1,2,3,4,8,7,6,1,2,3,4,5,6,
8b,,{24}7,5,7,5,6,,3,4,3,4,2,4,2,4,,,{4}1-4[8:1]*-6[8:1],1b,{12}5/2,3/6,4/7,5/8v5[8:1]*v3[8:1],,{24}7,1,{4}8,{24}2-6[8:1]/6,,3,4,3,4,{12}2,7,8,1/5,4/8,3/7,2/6-1[8:1],5,5,2/6,{24},2,3,4,5-1[8:1],,,2/8,3/7,4/6,{8}5,8,1/7,2/6,3/5,{32}5b,4,3,2,1,8/4,7/3,6/2,5/1,,,,5b,4,3,2,1s5b[8:1],2/8,3/7,4/6,{4}5,{8},{32}4b,5,6,7,8,1/5,2/6,3/7,4/8,,,,4,5,6,7,8z4b[8:1],1/7,2/6,3/5,{4}4,
{12},2,2,3/4,7,7,5/6,1,1,{24}7,8,7,{8}1,{12}E7,E6,E5,E4,E3,B6,B5,B4,B3,{4}Ch[4:1],{1}1>8[4:3],1>8[4:3],1>8[4:3],1>8[4:3],{16}1>8[4:3],,1,,,E8,,,E6,,,E4,,,E2,,1>5[16:5],,1,,,E1,,,E8,,,E7,,,E6,,{8}3/4-8[8:1],3/4,,1-5[8:1],1/7,,6-2[8:1],6/4,,3-7[8:1],3/2,,{16}1,8,7,6,5,4,3,2,{12}1b/8b,2/7,3/6,4/5,1b/2b,3/8,4/7,5/6,{24}7,8,7,6,5,4,2,1,2,3,2,1,2,3,2,1,2,3,2,1,{12}3/8,4/7,5/6,7-3[8:1]/8,1/7,2/7,
{4}3/7,{24}1,2,3,4b,,,8,7,6,{8}5b/1,2/6,3-8[8:1]/7-4[8:1],Cf,,,1/5,{4}2-7[8:1]/6-3[8:1],2/6,
{24}1b/8b,1b/8b,1b/8b,1b/8b,1b/8b,1b/8b,
{8}1b/8b,2/7,,{24}2,3,4,{12}5/7-4[8:1],8,1,2-6[8:1]/7,3,4,5-1[8:1]/2,4,7,5/8-4[8:1],7,6,8<5[8:1]/2>5[8:1],1,1,{4}2/8,{12}8w4b[8:1],1/7,,8,,,{8}2/6,1/7,{32}8,7,6,5,4,3,2,1,8,7,6,5,4,3,2,1,{48}8/A4,D5,A5,D6,A6,D7,A7,D8,A8,D1,A1,D2,A2,D3,A3,D4,A4,D5,{8}Chf[8:1],
{4}E7/E3/B6/B7/B2/B3,{32}4/8,3/7,2/6,1/5,8,7,6,5,{4}4b>1[8:1]/8b,{32}4/8,7,6,5,4,7,6,5,{4}4b/8b,{32}1/5,2/6,3/7,4/8,1,2,3,4,{4}5b<8[8:1]/1b,{32}1/5,2,3,4,5,6,7,8,{32}1b,2b/8b,3b/7b,4b/6b,5b<4[1:2],
&inote_7=(178)
{1},Ch[1:1],{2}1>8[4:13],1h[8:3],2h[8:3],3h[8:3],{4}4,4,5,5,{1}6h[4:7],{4},E7,C,E3,{24}2h[4:1]/E6,B5,B4,{4}E4,{16}3,4,{4}3h[4:1],5h[4:3],{24}6,7,8,{8}1bp8[8:3],{4},,,
{32}1<5[8:1]/7,2/6,3/5,4hb[32:13],,,3,2,{8}1,{32},,3,2,1>5[8:1],8,7,6h[32:13],,,7,8,{8}1,{32},,7,8,1<5[8:1],2,3,4h[32:13],,,3,2,{8}1,{32},,3,2,1-5[8:1],8,7,6h[32:5],{8},1,{8},{32}8>4[8:1]/2,3/7,4/6,5hb[32:13],,,6,7,{8}8,{32},,6,7,8<4[8:1],1,2,3h[32:13],,,2,1,{8}8,{32},,2,1,8>4[8:1],7,6,5h[32:13],,,6,7,{8}8,{32},,6,7,8-4-8[4:1],1,2,3h[32:5],,,,,{4}8-6-4<5-3-1>8b[4:11],{1}Ch[1:2],,,{4}1>4[8:1]/7h[4:1],{16},,6,6,5qq6[4:1],7,7,4,5,3,2,1,
{8}8>3[8:1],7,8/6-1[8:1],{16}5,4,6,2,3,4,5/8,1,2,3,{8}1<6[8:1]/4,2>5[8:1]/3,1,2,{16}8,8,1-5b[8:1],{32}7,6,5,4,3,2,{8}1,4<7[8:1],3,2-5[8:1]/4,{16}1,8,2,6,7,8,1/4,5,6,7,{8}8<5[8:1]/5,1>4[8:1]/2,8,1,{16}7,5,6,4,5,3,4,2,8b>3[8:1],1,1,7,8<5[8:1],6,6,4,8-4[8:1],3,2-6[8:1],1,{8}8,2,{16}5>2[8:1],1,6,6,5-1[8:1],7,7,4,5,4,4,8,{8}8b,2b/6b,{16}1<6[8:1],8,8,2,1>4[8:1],3,3,5,1-5[8:1],6,7-3[8:1],8,{8}1,7,{16}4<7[8:1],8,3,3,4-8[8:1],2,2,5,4,{32}5,4,3,2,1,8,7,6,5,4,3,2,1,8,{4}3b/7b-3[8:1],
{16}4b/7b,Cf,2,1,2,,3/8,,2,1,2,1h[16:3],{32}2,3,4,5,{8}6,7/8,{32}7/8h[8:1],6,5,4,3,2,1,8,7,6/1,2,3,4/8,5,6,7,8,1,2,3,{8}4/8b,5/7,1-5[8:1]/6,2/5>2[8:1],8/1,7,6-1[8:1],5/1-5[8:1],4/6,3,2,1,{16}4/8,1/5,2/6,3/7,8,1,2,3,{8}4v7[8:1]/1>5[8:1],2/5-1[8:1],{4}1/4,{8}8h[4:1],{16}2,3,4,1,2,3,4-1[8:1],A5,A6,A7,{16}4b<7[8:1],8,8,2,{4}4,{24}8qq5[4:1],1,2,{8}3h[4:1],8b,,2,1/6,{16}7,8,7,,2/6<2[4:1],3,4,5,{4}6/Cf,{8}E6/B6,E5/B4,{16}7/8,1,2,3,4/6,7,8,1,
{8}2/3,{16}4,4,{8}5<8[8:1],2,{16}5/2,3,4,5,6,E7,E8,E1,E2/5qq8[4:1],E3,{4}5h[8:1],{8}2<7[8:1],3,2,{16}4,3,2,1,4/8,3/7,2/6,1/5,8,7,6,5,4/8,3/7,2/6,1/5,4,3,2,1,4/8,3/7,2/6,1/5,8,7,6,5,{4}4>1[8:1]/8,{16}4/8-4[8:1],7,{8}6-8[8:1],8,6-4[8:1],{16}3,2,1/6,8,7,3,2,1,8/4-8[8:1],3,{8}2-4[8:1],4,2-8[8:1],{16}7,6,5/2,4,3,7,6,5,4,3,2,1,{8}7/8,7/8,1/6,1/6,2/5,2/5,3/4,3/4,{16}2,5,4,5,1,6,{32}3,4,5,6,7,8,1,2,3h[4:1]/7,6,5,4,,2,1,8,7,6/2,5/1,4/8,
{8}3bq7[8:1],3/7q3<6b[4:1],,{4}1hb[8:1],{16}1,7/2,{4}8-4-8[4:1]/3h[4:1],{8}8<5b[8:1],2h[4:1],,{16},4,{2}3-7[8:1]/1-5[8:1],{8}4>8[4:1]/8,{4}2<8-4b[4:1]/6,5hb[8:1],{16}6,5/3,{4}4-8<5[4:1]/2h[4:1],{8}4,1,{4}1hb[4:1],{16},2/8,3/7,4h[16:5]/6,5,E5,E4,E3,{8}Ch[1:1],,,{16}1,2,{8}3,,4,4,{16}3,5,3,5,2,6,2,6,1,7,1,7,2,8,2,8,{24}1,2,3,{16}7/4,7,{24}2,3,4,{16}8/5,8,{24}3,4,5,1/6,8,7,6,5,4,3,2,1,{32}8,E4,E3,E2,E1,E8,E7,E6,E5,E4,E3,E2,E1,E8,E7,E6,{2}E5/Chf[4:1],
{32}8,1/7,2/6,3/5h[32:9],{4}4h[8:5],{32},6,7,8,{4}1h[8:7],{32},5,6,7,{8}8h[8:1],{32},7,6,5,{4}4h[8:5],{32},8,7,6,{4}5h[8:7],{32},3,2,1,{8}8h[8:1],{32},1,2,3,{4}4h[4:1],{24},3/6,2/7,{8}1h[4:5]/8h[4:5],3m,4m,5m,{16}6m,5m,4m,,6m,5m,{8}4m,{4}3m,4m,
{32}2,3/1,4/8,5h[32:9]/7,{4}6h[8:5],{32},4,3,2,{4}1h[8:7],{32},5,4,3,{8}2h[8:1],{32},3,4,5,{4}6h[8:5],{32},2,3,4,{4}5h[8:7],{32},7,8,1,{8}2h[8:1],{32},1,8,7,{4}6h[8:5],{32},4,3,2,{4}1<4[1:1],{32},5,4,3,{8}2qq6b[8:5],{1},
{24}7bv4[8:1]/8b,1/6,2/5,{8}3-7[8:1]/4,{8}7,3,5-8[8:1],1v4[8:1],5,1,{16}6>3[8:1],3,7,2,{8}6<1[8:1],1-5[8:1],{4},{8}B2/B3,B6/B7,{24}2-6[8:1],3,4,{8}5/6-2[8:1],2,8,1-5[8:1],7v2[8:1],1,7,{16}4-1[8:1],1,3,8,{8}4<7[8:1],7>2[8:1],{4}4,{8}B5/B6,B2/B3,{16}8,4,8,4,1b`7m,3b`5m,8,4,8,4,8,4,1b`6m,2b`5m,8,4,8,4,8,4,1b`7m,3b`5m,8,4,8,4,8,4,1b`6m,2b`5m,8,7,6,2,6,2,7b`3m,1b`5m,6,2,6,2,6,2,7b`3m,8b`4m,6,2,6,2,6,2,7b`3m,1b`4m,6,2,6,2,6,2,{48}E7/E3,B7/B3,B4/B8,B1/B5,,,{8}Cf,
{12}1b/8b,{24}6b,5,6,5,{12},{24}2b,3,2,3,{12}1/4,{24}7,8,7,8,{12},{24}2,1,2,1,{12}3/8,5/6,5/6,,3/4,3/4,{24}5,6,7,8/2,3,4,{12}5,E7,E8,E6,E3,E2,E4,D7,D8,D6,D3,D4,D2,{24}8,8,{12}8,1h[12:1]/7,2h[12:1],3h[12:1],4h[12:1],5h[12:1],6h[12:1],{24}3,4,3,5,4,5,3,4,2,6,5,7,{12}4/8,1/2,3/8>3[8:1],,7/8,7/8,6,4/5,4-8[8:1]/5,,3/4,3/4,2,1-4[8:1],1,,6-2[8:1],6,5,{24}6,5,4,3,1,8,7,6,4,3,{12}2h[6:1]/7,,{24}4,3,5h[6:1],,,,8,6,1h[6:1],,,,7,6,5,8,1,2,6,5,3/4h[6:1],,,,1,8,2h[6:1],,,,{32}8,7,6,5/1,2,3,{48}4,{24}E8,E7,E6,E2,E3,{48}E4,B8,B7,B6,B5,B1,B2,B3,
{4}B4/Cf,{12}3,3,3,4,4,4,5,5,5,6b,6,6,7,7,7,8,8,8,1,1,1,2/8,2/8,2/8,3/7,3/7,3/7,{24}6,5,4,3,2,1,8/4,5,6,7,8,1,{4}2-6b[8:1]/5,{24}D2,B1,B7,{8}D7,{24}A5,D5,A4,D4,A3,D3,A2,D2,A1,D1,A8,D8,
{8}A7/Cf,5/6,,3/4-8[8:1],{8},{16}1,2,3,4,6,4,7,3,7,3,8,2,8,2,1,3,1,4,1,5,1,6,{8}1>4[8:1],{16}8<5[8:1],7,{8}1,8,2-8[8:1],{16}3,4,{8}2,{16}5,5,{12}6/7,7/8,1/8,3/4,4/5,5/6,4/7-4[8:1],8,8,2-5[8:1]/7,1,1,{24}2/5,6,7,8,{6}1b,{24},,6,5,6,5,7<4[8:1],,,,1/2h[4:1],8,7,,,,3-8[8:1],,,5,4,5,3,,,5,6,7,1,7,1,7,2,8,2,8,2,3,4,5,{12}6h,5h,B7,3h,4h,B2,5h,1h,E8,4h,{24}8h,7,6,5,4,3,2,1,8,7,1,2,3,4,2,3,4V28b[16:3],5,6,7,8,1,{4}2,
{16}6,,5h[8:1]/7h[8:1],,,5h[8:1]/6h[8:1],,,2h[8:1]/4h[8:1],,,1h[8:1]/8h[8:1],,,7-5[8:1]/8-4[8:1],,1,,7/8,,,3h[16:5],,,{16}2,1>4[8:1],8,7,6h[4:1],1,,,5,7,5,7,{12}4/6,4/6,4/6,{16}3,5,3,5,{12}2/6,2/7,2/8,{8}1/2,3/4,5/6,7/8,{24}7-3[8:1]/8-4[8:1],1/6,2/5,{8}3/4,7/8,,
{16}1h[4:1]/2,3,4,5,6,,1h[4:1]/2,3,4,5,6,,7,8,7,8,{12}1/6,2/7,3/8,2/4,3/5,4/6,1/8,2/7,3/6,5,4/6,3/7,{16}3,2,1,8,5,6,7,8,1/5,4,3,2,1/7,6,5,4,2,1,2,8,2,7,2,6,2,5,2,4,{32}2,3,4,5,6,7,8,1,2/7-3[8:1],6,5,4,{8},7b/8b,1>4[8:1],4>1[8:1],1-5[8:1],5-1[8:1],,6,7-4b[8:1],8v3[8:1],7,8<5[8:1],,{12}1/8,2,2,3>1[8:1],4,4,3/5<7[8:1],4,4,5/4-8[8:1],4,4,{4}4/1,{24}1,2,3,8,7,6,2v5[8:1],3,4,7v4<5-1b[4:1],6,5,{8}2,7,{4},
{32}8b,1/7,2/6,3/5,{8}4>1b[8:1],{32}8b,7,6,5,{4}4,{32}8b,7,6,5,4/8b,7,6,5,4/1b,8,7,6,5/1b,,,,1b,2,3,4,5/1b,2,3,4,5/8b,1,2,3,4/8b,,,,8b,7,6,5,4/8b,7,6,5,4/1b,8,7,6,{24}5/1,,,,3,4,3,,,,6,5,6,,,,2,4,3,4,2,3,4,5,6,,,,7,8,7,,,,2,1,2,3,4,8,7,6,1,2,3,4,5,6,
8b,,{24}7,5,7,5,6,,3,4,3,4,2,4,2,4,,,{4}1-4[8:1]*-6[8:1],1b,{12}5/2,3/6,4/7,5/8v5[8:1]*v3[8:1],,{24}7,1,{4}8,{24}2-6[8:1]/6,,3,4,3,4,{12}2,7,8,1/5,4/8,3/7,2/6-1[8:1],5,5,2/6,{24},2,3,4,5-1[8:1],,,2/8,3/7,4/6,{8}5,8,1/7,2/6,3/5,{32}5b,4,3,2,1,8/4,7/3,6/2,5/1,,,,5b,4,3,2,1s5b[8:1],2/8,3/7,4/6,{4}5,{8},{32}4b,5,6,7,8,1/5,2/6,3/7,4/8,,,,4,5,6,7,8z4b[8:1],1/7,2/6,3/5,{4}4,
{12},2,2,3/4,7,7,5/6,1,1,{24}7,8,7,{8}1,{12}E7,E6,E5,E4,E3,B6,B5,B4,B3,{4}Ch[4:1],{1}1>8[4:3],1>8[4:3],1>8[4:3],1>8[4:3],{16}1>8[4:3],,1,,,E8,,,E6,,,E4,,,E2,,1>5[16:5],,1,,,E1,,,E8,,,E7,,,E6,,{8}3/4-8[8:1],3/4,,1-5[8:1],1/7,,6-2[8:1],6/4,,3-7[8:1],3/2,,{16}1,8,7,6,5,4,3,2,{12}1b/8b,2/7,3/6,4/5,1b/2b,3/8,4/7,5/6,{24}7,8,7,6,5,4,2,1,2,3,2,1,2,3,2,1,2,3,2,1,{12}3/8,4/7,5/6,7-3[8:1]/8,1/7,2/7,
{4}3/7,{24}1,2,3,4b,,,8,7,6,{8}5b/1,2/6,3-8[8:1]/7-4[8:1],Cf,,,1/5,{4}2-7[8:1]/6-3[8:1],2/6,
{24}1b/8b/7m/6m/5m/4m/3m/2m,1b/8b/7m/6m/5m/4m/3m/2m,1b/8b/7m/6m/5m/4m/3m/2m,1b/8b/7m/6m/5m/4m/3m/2m,1b/8b/7m/6m/5m/4m/3m/2m,1b/8b/7m/6m/5m/4m/3m/2m,
{8}1b/8b/7m/6m/5m/4m/3m/2m,2/7,,{24}2,3,4,{12}5/7-4[8:1],8,1,2-6[8:1]/7,3,4,5-1[8:1]/2,4,7,5/8-4[8:1],7,6,8<5[8:1]/2>5[8:1],1,1,{4}2/8,{12}8w4b[8:1],1/7,,8,,,{8}2/6,1/7,{32}8,7,6,5,4,3,2,1,8,7,6,5,4,3,2,1,{48}8/A4,D5,A5,D6,A6,D7,A7,D8,A8,D1,A1,D2,A2,D3,A3,D4,A4,D5,{8}Chf[8:1],
{4}E7/E3/B6/B7/B2/B3,{32}4/8,3/7,2/6,1/5,8,7,6,5,{4}4b>1[8:1]/8b,{32}4/8,7,6,5,4,7,6,5,{4}4b/8b,{32}1/5,2/6,3/7,4/8,1,2,3,4,{4}5b<8[8:1]/1b,{32}1/5,2,3,4,5,6,7,8,{32}1b,2b/8b,3b/7b,4b/6b,5b<4[1:2],
