&title=Arghena
&artist=Feryquitous vs Laur
&first=-0.02
&des=SnowFox
&lv_5=14+
&inote_5=(185)
{4},,,,Cf/B1/B2/6b<3>6[4:13],,1h[4:1],,2h[4:1],,4h[4:3],,,,,3h[4:1],,2,1,8-4<5-1[4:7],7,,,{8}6,6h[8:3],,,{4},,6,7h[8:3],{8},1x,{4},8qq4[4:3]/2,,3,2,1,8b/6b,{8}7,5h[4:1],,6,4h[4:1],,5,3h[4:1],,4,2>5[16:3],,2,,8,,7,5h[4:1],,6,4h[4:1],,5,3h[4:1],,4,5-8[16:3]/2,,1,,2,,3,1h[4:1],,2,8h[4:1],,1,7h[4:1],,8,6,,4,,3h[4:1]/5,,4,,12,,7V53[8:3]/4h[4:3],,,,,,{16}2x,1,8,7,64,3,2,1,8b/Cf,,,,{8}17,{16}6,5,6,5,6,,5/3>8[8:1],,3,,5,,,,6,,6h[8:1],,4h[8:1],,2h[8:1],,8h[8:1],,6h[8:1],,4,,,,{24}2x,3x,4x,B2,B3,B4,1-5[8:1],,,1,,,{16}8,,,,7<4[8:1],,7,,2h[4:1]x,,{24}D4,D3,D2,D1,,,,,,3b/7b,,,,,,{16}1x>4[8:1]b,,,,8,,1x<6[8:1]b,,,,2,,1xq5[8:1]b,,,,8,,1xp5[8:1]b,,,,2,,1xv4[8:1]b,,1xv6[8:1],,,,,,,,,,3,5,4,6,5-1[8:1],,5,,8,,8<5[8:1],,,,81,,,,2,,3h[8:1],,5h[8:1],,7h[8:1],,1,,{32}2xv5[8:1]/8xv5[8:1]b,3x/7x,4x/6x,5x,,,,,{16}2b/8b,,,,,,28,,4/6<1[8:1],,6,,4,,,,2,,2h[8:1],,4h[8:1],,6h[8:1],,8h[8:1],,2h[8:1],,4,,,,4-1[8:1],,6v3[8:1],,4-8[8:1],,6,,4,,,,7<4[8:1],,1,,2hx[4:1],,{24}D4,D3,D2,D1,,,,,,{16}3b/7b,,,,1x>4[8:1]b,,,,8,,1x<6[8:1]b,,,,2,,1xq5[8:1]b,,,,8,,1bxp5[8:1]b,,,,2,,1xv4[8:1]b,,1xv6[8:1],,,,,,,,3b/7,,,1b/2,,,5b/3>6[2:1]b,,4h[8:1],,3b,,4hx[2:1],,,,,,,,,,{32}5/4b,6,7,8,1,2,3,4,5-7-4-8-3-1-6-3[8:7]b,6,7,8,1,2,3,4,{8},A7,A4,A8,A3,A1,A6f/Ch[4:27]/B2/B1,,{1},,,{8}8h[4:2],,,,,,8h[2:1],,,,,,8h[4:1],,,,7h[2:1],,,,,,7h[2:1],,,,,,7h[4:1],,{16},,1,2,3bh[4:1]/4,,,,{8}8,,,56,1,,3h[4:1]/4,,8,,,56,1,{16}2,3,{8}4bh[4:1]/8,,6,,,15,3,,4h[4:1]/8,,6,{16},1,5,,5,,3,,,,{8}2b/4b,2,35,3,46,4,57,5,8b/6b,8,75,7,64,6,53,5,{16}2b,4,3,5,4,6,5,7,8b,6,1,7,2,8,3,1,4bw8[2:1]b,,,,,,,,,,,,,,,,2x-5[8:1]/8x,,,,2,,7,,,,{32}E4,B3,B2,E2,1xh[16:13]/5x,4,3,2,,8,7,6,5,4,{24}3,2,,{16}8,7,6,5,4,3,2,B1,C,B5,,,,3x-8[8:1]/8x,,,,7,,7,,,,{16}1,,37,,{16}A1f/E1/E2/5x,,,A7f/E7/E8/3x,,,A5f/E6/E5/1x,,,A3f/E3/E4/7x,,,2,1,3,,48,,{24}5x,6x,5x,6x,5x,6x,5xv4-1<5[8:7],,,5xv6-1>5[8:6]b,,,,,,,,,{8},,,,,,,{16}5,5,6,4,7,3,8-4[8:1],,,,{24}84,3,2,1h[4:1],,,{8},5-1[8:1],5,{24}15,2,3,4h[4:1],,,{8}8<5[8:1],8,{24}8/4,3,2,{8}1h[4:1],6,6,,{16}2x-5[8:1]/8x,,,,2,,7,,,,{32}E4,B3,B2,E2,1xh[16:13]/5x,4,3,2,,8,7,6,5,4,{24}3,2,,{16}8,7,6,5,4,3,2,B1,C,B5,,,,3x-8[8:1]/8x,,,,7,,7,,,,{16}1,,37,,{16}A1f/E1/E2/5x,,,A7f/E7/E8/3x,,,E4f/1x,,B5f/7x,,3x,5x,{24}4x,5x,4x,{8}5x,6x/4x,{32}7x/3x,8,1,2,3,4,5,6,7s3<1[8:8]b,,,,1bs5>1[8:7],,,,{2},,,{8}2h[4:1],4,3,7h[4:1],5,6,4,5,3-5[8:1],5,3,6-4[8:1],4,6,1w5[8:1],,{32}1b,B1,Cf,B5/B6/B4,,,,,{16},,3/7bh[4:1],,,,E2,,E3/6,,E4,,8h[4:1],,,,1,2,3,4,51,6,7,8,15,6,7,8,1bh[4:1]/4,,,,E2,,E3/7,,,,E8,,E7/2,,E6,,1h[4:1],,,,8,7,6,5,48,3,2,1,84,3,2,1,8bh[4:1]/5,,,,A7,,A6/2,,,,D2,,D3/8,,D4,,7<4[4:1],,,,4q1[4:1],,,,2,,2,,3,,,,{32}8x/4x,37,26,15,,,,,C/B3/B6,,,,,,,,1x/5x,26,37,48,,,,,C/B7/B2,,,,,,,,1bx/8bx,27,36,45,,,,,C/E7/E3,,,,,,,,5bx/4bx,36,27,18,,,,,C/E7/E3,,,,,,,,{16}1bx,2x,3x/7x,6x,5x/2x,3x,4x/8x,7x,6x/1x,2x,3x/7x,6x,5x/2x-6[8:1],3x,4x/8x,7x,6x/2bV84[2:1]b,,,,,,,,,,,,,,,,5bhx[64:1],6h[64:1]x,7h[64:1]x/3h[64:1]x,2h[64:1]x,1h[64:1]x/6h[64:1]x,7h[64:1]x,8h[64:1]x/4h[64:1]x,3h[64:1]x,2h[64:1]x/5h[64:1]x,6h[64:1]x,7h[64:1]x/3h[64:1]x,2h[64:1]x,1h[64:1]x/6xv1[8:1],7h[64:1]x,8h[64:1]x/4h[64:1]x,3h[64:1]x,{64}2xpp5[2:1]b/A6,B6,,,,,,,,,,,{16},,,,,,,,,,,,,{12}8b-4[8:1],,1,8/1h[4:1],,,{16}5,6,7,8,2,3,4,5,{12}7b-3[8:1],,2,2h[4:1]/7,,,{16}4b,5,6,7,1,2,3,4,7,5,7,5,6,3,6,3,8,1,8,1,5,2,5,2,6,5,7,3,4,2,8,1,7h[8:1],,4x,4x,5x,5x,1h[8:1]x,,Ch[1:1],,,,,,,,,,,,,,,,{256}B5/B4/E1,E5,B8,B1,,,,,,,,,,,,,,,,,,,,,,,,,,,,,,,,,,,,,,,,,,,,,,,,,,,,,,,,,,,,,,{16},,,,,,,,,,,,4bh[16:27]/5bh[16:27],,,,,,,,,,,,,,,,,,,,,,,,,,,,{32}3x-8[8:1]b,2,1,8,7,6,5,4,{64}3b<2[16:6]/A8f,B8,C,B4,A4,,,,,,,,,,,,{16},,,,,,,,,,5b/7h[4:1],,,,{32}1,2,3,4,5/8b,,,,{16},,27,,56,,18,,3b-8[8:1]/4b,,,,5,,7,,1,6,2,5,3,,18,,5/6-1[8:1],,,,4,,2,,8,3,7,4,6h[8:1],,{32}7,8,1,2,3bV16[4:1]/7bV16[4:1]b,,,,,,,,,,,,{8},,,,45,2bV47[4:1]/6b,,,6,8>3[8:1],,8-4[8:1]b/1,,8b/6b,,6,72,{16}8,7,6/1-4[8:1],5,4-1[8:1]b,,1,,,,7,,7h[8:1],,3,,3h[8:1],,{12}8,5,6,3,4,1,{16}Cf/B6/B7,,2,,2,,6,5,6-1[8:1],7,6,,61,,2,,3,,7,,26,,1,2,3/7qq5[8:1],4,5-1[8:1],,7,,,,4,,4,,28,,3,4,3-8[8:1],2,3,,38,,7,,6,,2,,73,,8,7,6/2pp4[8:1],5,4-8[8:1],,2,,,,7,,7,,18,,2,3,45,6,7,,1,,1,,83,,2,,17,,6,5,{32}3x/4x,2,1,8,7,6,5x/3x,2,1,8,7,6,{256}5bxV74[8:5]b,1bxV38[8:5],,,,,,,,,,,,,,,,,,,,,,,,,,,,,{16},,,,,,,,,,,,,,,,1,5,2,6,3,,2,6,3,7,4,,{32}8,1,2,3,4,5,6,7,{16}8-3[8:1]/1x,,,,{24}87,6,5,4h[4:1],,,,,,{24}7,8,1,{32}2hx[16:13]/6,7,8,1,,3,4,5,6,7,{24}8,1,,{16}3,4,5,6,7,8,1,B2,C,B6,,,,7x/3x,,,,1,,5hx[16:2]/4hx[24:2],,,6hx[16:2]/5hx[24:2],,,3x/4x,,B7/B8f,,,B1/B2F,,B3f,,E5f,E4f,E8f,{24}E2f,E7f,E3f,E6f,Cf,,,,,,,,1b,8b,1b,8b,1b,8b,1b,,,{32}E1,E8/E2,E7/Cf/E3,E6/E4,5x<7-1>3<5-7>1-3[1:1]b/4x,,,,,,,,{16},,,,,,,,,,,,,,,,,,,,2x/6x,,,,1h[8:1]/7h[8:1],,,1h[16:2]/8h[16:2],,,,,27,,3h[8:1]/6h[8:1],
,,4h[8:1]/6h[8:1],,,37,,2h[8:1]/1h[8:1],,,3,3,1,4,4,8,5,7b,,,35,,,1,2,3b/8b,,,56,,,2,8,{32}1b,2,3,4,1,2,3,4,1,2,3,4,1,2,3,4,5x/1b,8,7,6,1,8,7,6,5,34,2,1,87,6,5,4,3x>6<3[4:14]b/Cf,,,,,,,,{16},,,,,,,,,,,,,,,,,,E6,B5,B4,,,C,,,E1,,,,,,{8}5,6,,6,7,,7,8,,8,1,,5,5b,
