&title=センダンライフ
&artist=花守ゆみり
&first=0
&des=谱面-200号
&lv_5=13
&inote_5=(227){1},
{8},{16}3,4,{8}3,6h[4:1],,5h[4:1],,4,4h[4:1],,2h[4:1],,3h[4:1],,4h[4:1],,5,5b,,
3h[4:1],,4h[4:1],,5,5h[4:1],,7h[4:1],,6h[4:1],,5,5-8[16:1],4,3b/5b,,
3-1[8:1],,3/5,,7,7,8,,6-8[8:1],,6/4,,2,2,1,,
3-1[8:1],,3/4,,7,7,8,,6,5,7,5,8<4[16:4],8,4,,
3-1[8:1],,3/5,,7,8,1/6,,6-8[8:1],,6/4,,2,1,3/8,4,
7,5,7,6,7,8,6-1[8:1],1-5[8:1],,3,3,2,1h[4:1],{24}5,6,7,8,,,{8}1b/2b,3b/8b,,
3h[8:3],,5,5h[8:3],,7,7h[8:2],,1,1<4[4:1],,3,3,,
2,2,4,3,5,4,6h[4:1],,7h[4:1],,8h[4:1],,5>2[8:1],,8,7,6,,
2/4,,5/7,,3/4,,5-1[8:1]/6,,8-3[8:1],8,,2,,1/5,,
2,2-5[8:1],,7-4[8:1],,1-5[8:1],1,8-4[8:1],,2b-7[8:1],,6b-3[8:1],,1bq8[4:1],,
,,6h[4:1],,1h[4:1],,5,5,3h[8:3],,1,1<4[4:1],,3,,
2h[4:1],,6,3,6,1,8,3,8,5h[8:3],,7,7h[4:1],,1,1,8,2h[4:1],,5pp7[8:1],,1pp3[8:1],,
6pp2[8:4],,2,,4,4h[8:6],,,1,1,,8V26[16:5],8,,4,4,,
5,6,5,7,4h[4:1],{24}8,7,6,
{8}5,4-8[8:1]/3-7[8:1],,4/3>4[4:4],,,,,,,,,,,,
7,,7p6[1:1],,,,5,,,,4h[4:3],,,,,,2,,2/4h[4:3],,,,,,1,,1s5[1:1]/4,,,,,,3,,3,,
2h[8:3],,,4,3/4,,2/5,,1-5[8:1]/6,,,,8b,8,4,7,5>2[8:1],,5/7,,6-8[8:1],6,1,2,3-8[8:1],,3/5,6,7<4[8:1],1,
7,2,1-4[8:1],5,1,6,1-5[8:1],7,1,8,7b-3[8:1],,8b-4[8:1],8,,1b-5[8:1],,2,,
,6-8[8:1],5,6,,3-1[8:1],4,3,5,6,7,8-4[8:1],1,2-6[8:1],,7-3[8:1],,1-5[8:1],,6q5[16:5],,1,1h[4:1],,,{32}1<6[8:1],2,3,4,,6<2[16:3],,,,,,,,,,,
{8},,6-1[8:1],,6/4-7[8:1],,4/8,,1-6[8:1],4,1,2-5[8:1],7,2,6-1[8:1],,6/5,,
3-8[8:1],,3/7-4[8:1],,7/1,,2-5[8:1],8,2,1-6[8:1],4,1,3-8[8:1],,3/4,,
7-4[8:1],,3-7[8:1],,8-3[8:1],,5-2[8:1],,1<4[4:1],,3,3,,2,2-5[8:1],,6-2[8:1],,1-6[8:1],,7<8[16:5],,4,,,,7/5,6,5,6/4,5,4,3-8[8:1],,3/5-2[8:1],,5/1,,8-3[8:1],5,8,7-4[8:1],2,7,3-8[8:1],,3/4,,
6-1[8:1],,6/2-5[8:1],,2/8,,7-4[8:1],1,7,8-3[8:1],5,8,6-1[8:1],,6/5,,
2>5[8:1],,2/8,,7-4[8:1],7,2-5[8:1],2,8-4[8:1],,1/8,,2-5[8:1],2,7-4[8:1],7,1-5[8:1],,
1/7,7,4/8,8,7/3,2/6,{16}1,5,1,5,1,5,1,5,
{32}1,8,7,6,5,4,3,2,1-5[8:1],,,,
{8},
1b/7b<4[8:1],,3,3h[4:1],,4,3,2,1>4[8:1],,
6,6h[4:1],,5,6,7,8p4[8:1],,2,2h[4:1],,3,4,5,2/6,2-5[8:1]/6-1[8:1],,2/6,,4/8,3/7,2/6,
5<8[8:1],5,1,2h[4:1],,1,2,3,4>1[8:1],4,8,7h[4:1],,8,7,6,5q1[8:1],5,2,3h[4:1],,2,1,8,
7/3,7<4[8:1]/3>8[8:1],,7/3,,1/5,2/6,3/7,
8h[4:1],4,4,6h[4:1],2,2,5,8>5[8:2],,,7,,8-4[8:1]*-3[8:1],,8,,
2h[4:1],6,6,4h[4:1],8,8,5,6,7<4[8:1],7,3,2,1-5[8:1]*-6[8:1],,1,,
7/4,6,5,6,2/5,3,4,3,1-7[8:1]/2-4[8:1],,2-6[8:1]/1-5[8:1],,2/1,,
8,8,
2/1,3,3,2-5[8:1]/1-6[8:1],,1/2,,4,5/6,7,8/1,2,3/4,5,6/4,3/7,2/8,
{16}1,7,2,6,3,5,4-8[8:1],,,,
{8}4b>5[4:3]/6bp4[4:3],,,,,,,,,,
8qq4[1:1],,,,,,,,,,,,2>1[1:1],,,,6h[8:12],,,,,,,,,,,,3h[8:4],,,,6pp1[4:3],,,,,,,,2h[8:3],,,3h[8:3],,,4-1[2:1],,,,7h[2:1],,,,8,8h[4:1],,6,7,5,2,4,3,
6,2q5[4:3],,6,6,,,8h[2:1],,,,2h[8:3],,,5h[8:3],,,
2,,4,3h[8:3],,,8,,5,6h[8:3],,,7,,6/7,,1,,6,5h[8:3],,,8,,3p5[2:1],4,,,,,7,,8,,3,4,,6,5,,7<8[1:1],,,,4p8[2:1],,,,,,,,
{96}7/8-4[8:1],,,1,,,2,,,3,,,4,,,,,,,,,,,,{8},,
{8}3-8[8:1],,3/5-2[8:1],,5/1,,8-3[8:1],5,8,6-1[8:1],5,6,4-8[8:1],,5/4,,
6-1[8:1],,6/2-5[8:1],,2/8,,7-4[8:1],2,7,1-6[8:1],5,1,4w8[8:1],,4,,
2-5[8:1],,6-2[8:1],,1-6[8:1],,4-7[8:1],,8>5[4:1],,6,6,,7,7-4[8:1],,3-7[8:1],,8-3[8:1],,2>1[16:5],,5,,,,2/5,4,3,4/7,5,6,
7-4[8:1],,7/1-6[8:1],,1/5,,4-7[8:1],1,4,2-5[8:1],1,2,8-4[8:1],,1/8,,
2-5[8:1],,2/6-1[8:1],,6/4,,3-8[8:1],6,3,5-2[8:1],1,5,8w4[8:1],,8,,
7<4[8:1],,7/1,,2-5[8:1],2,6-1[8:1],6,4-8[8:1],,4/5,,7-4[8:1],7,3-8[8:1],3,5-1[8:1],,
5/2,3,4/8,4,3/7,2/6,{16}1,5,1,5,1,5,1,5,
{32}2,3,4,5,6,7,8,1,2,3,4,5,6,7,8,1,
{8}2-5[8:1],,
2/1,,7,8,1/6,,
7-4[8:1],,7/8,,2,1,3/8,,
2-5[8:1],,2/1,,7,8,1/6,6,
2,5,2,4,2,3,2,1
,
2-6[8:1],,
2/8,,7,8,1/6,,
7-3[8:1],,
7/8,,2,1,8/3,,
2-6[8:1],,2/8,,7-4[8:1],7,3,2,1-5[8:1],1,7-4[8:1],7,2-6[8:1],2,7,8,
1<6[8:1],,1/3-7[8:1],,5,5-8[8:1],,5/2-6[8:1],,1,1p5[8:1],,1/3,,2,2,
1-5[8:1],,6,6,7-4[8:1],,7/2>5[8:1],,6,6,7-4[8:1],,7/8q4[8:1],,8/6,,
7-3[8:1],7,2-5[8:1],2,8-4[8:1],8,2-5[8:1],2,1-6[8:1],1,3-8[8:1],3,7-4[8:1],7,2,2,
1>4[8:1]*<6[8:1],,1w5[8:1],,1,,3/7,3/7,{16}2,1,3,8,4,7,5,6,3,4,2,5,
{8}1b-5[8:1],5b-1[8:1],1bw5[8:1],,,,,E
