&title=[プロセカ]Iなんです
&artist=れるりり / 東雲 絵名 / 25時、ナイトコードで。 「プロジェクトセカイ カラフルステージ! feat. 初音ミク」
&first=0
&des=えななん
&lv_5=12+
&inote_5=(185){1},
{16}1b/8b,,,,4b/5b,,,,2/7h[16:3],,,5h[16:3],,,4h[4:1],,
{16},,2,,5,,3,,2h[8:3]/1,,,,,,7h[4:1],,
{16},,5,,6,,1,,2/5h[8:3],,,,,,3h[4:1],,
{16},,1,,2,,8,,1-5[8:1],,,,6,,,,
{16}7,,,,8h[4:1],,,,7,,,,6h[4:1],,,,
{16}8,,,,1h[4:1],,,,2,,,,3h[4:1],,,,
{16}7,,,,6h[4:1],,,,2,,,,3,,,,
{16}54,,45,,36,,36,,3,4,3,4,2,5,1b-5[2:1],,
{16},,,,,,,,,,,,,,,,
{16}7-3[8:1],,,,4-8[8:1],,,,
{16}7,,,6,,,15,,2,,3,,8,,1,,
{16}8b/7b,,6,,5,,47,,3,,8,,1,,2,,
{16}3b/4b,,5,,1,,26,,5,,4,,3,,27,,
{16}8b,7,6,5,8,1,2,3,8-4[8:1],,,,8/1-5[8:1],,,,
{16}1,,,8,,,26,,3,,8,,2,,5,,
{16}4b/7b,,6,,5,,37,,6,,1,,7,,4,,
{16}2b/5b,,3,,5,,26,,1,,8,,27,,2-5[8:1]/7-4[8:1],,
{16},,,,,,,,
{16}6h[4:1]/5,,,,,,,,7,,7h[4:1]/8,,,,,,
{16}2h[4:1],,,,,,2h[4:1]/1>5[4:1],,,,,,,,,,
{16}2,,3,,6,5,6,,7,,1,8,,,27,,
{16}3,,4,,6,,5-1[8:1],,,,,,,,,,
{16}2h[4:1]/1,,,,,,,,3,,3h[4:1]/4,,,,,,
{16}6h[4:1],,,,,,7h[4:1]/8<4[4:1],,,,,,,,,,
{16}8,,7,,2,,3,4,3,,25,,1,,8,,
{16}3b/7b-2[8:1],,,,1b-4[8:1]/7b,,,,5b-8[8:1]/1b,,,,5b/4b,,,,
{12}3>4[1:2],,,,,,,,,,,,
{12},,,,,,,,,,,,
{12},,,{16},,,,,,,,3,,,,
{16}75,,,,65,,,,24,,,,34,,,,
{12}4,,4,5,,5,3,,3,6,,6,
{12}2,,,{16}1v8[16:3]/5v8[16:3],,,,,,,,,,,,
{12}1,,5,2,,5,3,,,8,,4,
{12}7,,4,6,,,{16}1,,8,,2^5[8:1],,6,,
{16}2,,7p3[8:1],,3,,7,,2pp7[16:7],,5,,2,,6,,
{16},,8qq4[8:5]*pp4[8:5],,8,,,,,,,,,,,,
{16},,,,1b-4[8:1]/8b-5[8:1],,,,,,,,2b/7b,,,,
{16}1-5[8:1],,,,1/7-3[8:1],,,,2-6[8:1]/7,,,,8/2,,,1,,,57,,
{16}8,,2,,4<2[16:5]/3,,1,,46,,,,,,6,,
{16}4,,8,,5>7[16:5]/6,,7,,53,,,,,,3,,
{16}5,,1,,4-8[8:1]/3,,2,,46,,,,7-3[8:1],,,,
{16}2-6[8:1]/7,,,,8-4[8:1]/2,,,,1/8,,,3,,,62,,
{16}8,,4,,5>7[16:5]/6,,7,,53,,,,,,3,,
{16}5,,1,,4q5[16:5]/3,,2,,46,,,,8,,,,
{16},,13,,48,,57,,
{16},,25,,36,,45,,6,,5,,6,,4,,
{16}6,,2,2,,,45,,3,,4,,3,,5,,
{16}3,,7,7,,,81,,2,,1,,2,,8,,
{16}2,,6,6,,,81,,7,,8,,7,,1,,
{16}7,,3,3,,,56,,2h[8:1],,4,,2h[8:1],,8,,
{16}1,,7,8,,6,5,,6h[8:1],,8,,6h[8:1],,4,,
{16}5,,3,4,,2,1,,2,,3,4,,6,5,,
{16}4,,5,3,,3,4,,2,,7,8,,2,1,,
{16}5,,4,6,,6,5,,3<2[1:3]/6-2[8:1],,,,,,,,
{16},,,,,,,,,,,,,,,,
{16},,,,,,,,,,,,,,,,
{16},,,,,,,,,,,,,,,,
{16},,,,,,,,6,,,,6,,,,
{16}5,,,,5,,,,4,,,,4,,,,
{16}3,,,,3,,,,7,,,,7,,,,
{16}2,,,,2,,,,3,,3,,5,,5,,
{16}7,,7,,1,,1,,3,4,3,4,2,5,2,5,
{16}1b,,,2b/4b,,,3b/7b,,1w5[8:1]/5,,,,1b,,,,
{16}37,,,51,,,26,,
{16}3,,5,,4-8[8:1]/2,,3,,45,,6,,7,,81,,
{16}2,,3,,57,,6,,45,,2,1,2,,38,,
{16}25,,3,7,1^4[8:1]*^6[8:1],,28,,1,,,,8-4[8:1]/4,,,,
{16}2q6[8:1]/8,,,,7^4[8:1]/2,,,,7,,,8,,,62,,
{16}7,,4,,5-1[8:1]/6,,7,,54,,3,,2,,18,,
{16}2,,6,,4qq6[8:3]/3,,2,,47,,,,8,,,,
{16},,4-1[8:1]/5-8[8:1],,27,,45,,
{16},,2,5,4,7,1,6,3,8,{32}5bqq5[8:5]*pp5[8:5],,,,{16},,,,
{16},,,,,,,,,,,,,,,,
{16}1b/8b,,2,,3,,47,,6,5,6,,8,,3,,
{16}2b/5b,,1,,7,,35,,2,1,2,,8w4[8:1]/3,,6,,
{16}8b,,,,26,,37,,8-4[8:1]/4,,,,8/1-5[8:1],,,,
{16}1,,,8,,,26,,3,4,3,,25,,8,,
{16}4b/7b,,6,,5,,37,,6,5,6,,47,,1,,
{16}5b/2b,,3,,4,,26,,7,5,8,4,7,3,6,2,
{16}8,1,6,3,7,2,5,4,8bz4[8:1]*z4[8:1],,,,8b/1b,,,,
{16}3b-7[16:1],,,6b-2[16:1],,,5bqq4[8:1]*V71[8:1],,,,,,,,,,
E
