&title=芥川龍之介の河童 ~ Candid Friend
&artist=上海アリス幻樂団
&first=0
&des=Acadm
&clock_count=4
&lv_2=3
&lv_3=7
&lv_4=11+
&lv_5=13+
&inote_2=(173){1},
,
{4},,,
{4},,,
{4}4h[2:3]/5h[2:3],,,
{4},,,
{4},,,
{4},,,
{4},,,
{4},4,4,
(346){2},5,5,
(173)
{4}4,,,
{4},,,
{4}3,,,
{4},,,
{4}2,,,
{4},,,
{4}3,,,
{4},,,
{4}5,,,
{4},,,
{4}6,,,
{4},,,
{4}7,,,
{4},,,
{4}6,,,
{4},,,
{4}4h[1:3]/5h[1:3],,,
{4},,,
{4},,,
{4},,,
{4},,,
{4},,,
{4},,,
{4}45,,,
{4}3h[1:3]/6h[1:3],,,
{4},,,
{4},,,
{4},,,
{4},,,
{4},,,
{4}36,,,
{4}36,,,
{4}4,,,
{4}3,,,
{4}2,,,
{4}3,,,
{4}6,,,
{4}7,,,
{4}8,,,
{4}1,,,
{4}5,,,
{4}6,,,
{4}7,,,
{4}6,,,
{4}3,,,
{4}4,,,
{4}5,,,
{4}4,,,
{4}1,,,
{4}2,,,
{4}3,,,
{4}2,,,
{4}7,,,
{4}6,,,
{4}5,,,
{4}4,,,
{4}8,,,
{4}7,,,
{4}6,,,
{4}7,,,
{4}2,,,
{4}1,,,
{4}8,,,
{4}1,,,
{4}3h[2:3]/4h[2:3],,,
{4},,,
{4},,,
{4},,,
{4}6h[2:3]/5h[2:3],,,
{4},,,
{4},,,
{4},,,
{4}2h[2:3]/1h[2:3],,,
{4},,,
{4},,,
{4},,,
{4}7h[2:3]/8h[2:3],,,
{4},,,
{4},,,
{4},,,
{4}3h[2:3],,,
{4},,,
{4},,,
{4},,,
{4}6h[2:3],,,
{4},,,
{4},,,
{4},,,
{4}4h[2:3],,,
{4},,,
{4},,,
{4},,,
{4}5h[2:3],,,
{4},,,
{4},,,
{4},,,
(346){2},,,
(173)
{4}4,,3,
{4}3,,2,
{4}2,,1,
{4}1,,,
{4}8,,7,
{4}7,,6,
{4}6h[4:3],,,
{4},,,
{4}5,,6,
{4}6,,7,
{4}7,,8,
{4}8,,,
{4}1,,2,
{4}2,,3,
{4}3h[4:3],,,
{4},,,
{4}34,,,
{4}12,,,
{4}78,,,
{4}56,,,
{4}78,,,
{4}12,,,
{4}3h[4:3]/4h[4:3],,,
{4},,,
{4}65,,,
{4}87,,,
{4}21,,,
{4}43,,,
{4}2q5[1:2]*q5[1:2],,,
{4},,,
{4},,,
{4},,,
{4}8b,,,
&inote_3=(173){1},
,
{4}4h[1:1]/5h[1:1],,,
{4},,,
{4}4,3,2,
{4}6,7,8,
{4}1h[4:3],,5,
{4}5,,3,
{4}3,6,6,
{4}4h[4:3],,,
(346){2}5h[2:3],,,
(173)
{4}3,3,3,
{4}24,,,
{4}6,6,6,
{4}57,,,
{4}3,3,3,
{4}12,,,
{4}6,6,6,
{4}78,,,
{4}3,3,4,
{4}25,,,
{4}6,6,5,
{4}47,,,
{4}2,2,1,
{4}38,,,
{4}8,8,7,
{4}16,,,
{4}3,3,,
{4}4,4,,
{4}5,5,,
{4}6,6,,
{4}7,7,,
{4}8,8,,
{4}1,1,,
{4}12,,,
{4}6,6,,
{4}5,5,,
{4}4,4,,
{4}3,3,,
{4}2,2,,
{4}1,1,,
{4}8,8,,
{4}87,,,
{4}3,3,3,
{4}2,2,2,
{4}1-4[1:1],,,
{4},,,
{4}6,6,6,
{4}7,7,7,
{4}8-4[1:1],,,
{4},,,
{4}3,3,3,
{4}5,5,5,
{4}6-3[2:1],,,
{4}2,,,
{4}6,6,6,
{4}4,4,4,
{4}3-6[2:1],,,
{4}7,,,
{4}4,4,4,
{4}3,3,3,
{4}2,2,2,
{4}18,,,
{4}5,5,5,
{4}6,6,6,
{4}7,7,7,
{4}81,,,
{4}1,1,1,
{4}2,2,2,
{4}3h[4:3]/4h[4:3],,,
{4},,,
{4}8,8,8,
{4}7,7,7,
{4}5h[4:3]/6h[4:3],,,
{4},,,
{4}2h[2:3]/4h[2:3],,,
{4},,,
{4},,,
{4}35,,,
{4}7h[2:3]/5h[2:3],,,
{4},,,
{4},,,
{4}46,,,
{4}3h[2:3]/1h[2:3],,,
{4},,,
{4},,,
{4}28,,,
{4}6h[2:3]/8h[2:3],,,
{4},,,
{4},,,
{4}17,,,
{4}4h[2:3],,,
{4},,,
{4},,,
{4}4,,,
{4}5h[2:3],,,
{4},,,
{4},,,
{4}5,,,
{4}2h[2:3],,,
{4},,,
{4},,,
{4}2,,,
{4}7h[2:3],,,
{4},,,
{4},,,
{4}7,,,
(346){2}45,45,45,
(173)
{4}3,3,3,
{4}2,2,2,
{4}1,1,1,
{4}78,78,,
{4}6,6,6,
{4}7,7,7,
{4}8,8,8,
{4}21,21,,
{4}2,2,2,
{4}3,3,3,
{4}4,4,4,
{4}65,65,,
{4}7,7,7,
{4}6,6,6,
{4}5,5,5,
{4}34,34,,
{4}3,3,34,
{4}6,6,65,
{4}45,45,45,
{4}45,,,
{4}6,6,64,
{4}3,3,35,
{4}36,,,
{4},,,
{4}2,2,21,
{4}7,7,78,
{4}18,18,18,
{4}18,,,
{4}7,7,71,
{4}2,2,28,
{4}2q5[1:1]*q5[1:1],,,
{4},,,
{4}8b,,,
&inote_4=(173){1},
,
{4}5h[4:3],,,
{4}4q4[4:1],,,
{4}56,4,3,
{4}26,7,8,
{4}1-5[8:1]/5,,7,
{4}7h[4:5],,6,
{8}5,,4,,3,3,
{4}3,34,34,
(346){2},56,56,
(173)
{4}4h[4:1],3h[4:1],2h[4:1],
{4}1<6[2:1],2,3,
{4}4h[4:3],,5,
{4}5v4[8:1],,3,
{4}3h[4:1],2h[4:1],1h[4:1],
{4}8<5[2:1],1,2,
{4}3-6[8:1],,78,
{16}1h[4:1]/6h[4:1],,,,,,,,3,4,3,,
{4}2-5[8:1],5,6h[4:3],
{4}7,1,3q4[2:1],
{4}5h[2:1],,,
{4}5v4[8:1],,3,
{4}6-1[8:1],1,2h[4:3],
{4}3,5,7p4[2:1],
{4}3h[2:1],,,
{16}4,5,4,5,4,,,,36,,,,
{4}2-5[8:1]/7,,8,
{4}2/7-4[8:1],,1,
{4}12,34,45,
{8}56,,45,,34,34,
{4},3h[4:1],2h[4:1],
{4}1h[4:1],8h[4:1],7h[4:1],
{4}6<3[2:1],,,
{4}4h[2:1],,,
{4}3-8[8:1]/6,4,5,
{4}3/6-1[8:1],5,4,
{4}43,21,18,
{8}87,,56,,45,34,
{4},2h[4:1],3h[4:1],
{4}1h[4:1],4h[4:1],8h[4:1],
{4}5w1[4:1],,,
{16}1,8,1,8,1,8,1,8,1,,,,
{8}3q1[4:1],,5,6,7,,
{8}3q1[4:1],,5,6,7,,
{8}1h[4:1],,4h[4:1],,3,5,
{4}3<6[8:1],7v4[8:1],3,
{8}3h[2:1],,2,1,8,,
{4}8<5[8:3],1,2,
{384}3>5[4:3],4<2[4:3],,,
,,,,
,,,,
,,,,
{24},,{8},,,,,
{16},,,,,,,,3,4,3,4,
{8}2p4[4:1],,8,7,6,,
{8}2p4[4:1],,8,7,6,,
{8}2,4,3,5,4,,
{8}6,4,5,3,4,,
{8}6h[2:1],,5,4,3,,
{4}2>5[8:3],5,6,
{384}7<1[4:3],8>6[4:3],,,
,,,,
,,,,
,,,,
{24},,{8},,,,,
{16},,,,,,,,7,8,7,8,
{8}7q5[4:1],,3,2,1,,
{8}7q5[4:1],,3,2,1,,
{8}1h[4:1],,4h[4:1],,3,2,
{4}3h[4:1],5h[4:1],7h[4:1],
{8}6>3[4:1],,3,2,1>4[8:1],,
{4}5v2[8:1],1>4[8:1],5,
{4}3/7qq7[2:1],,3,
{4}4,2,3,
{8}6p8[4:1],,2,3,4,,
{8}6p8[4:1],,2,3,4h[4:1],,
{8}1h[2:1],,2,3,4,,
{8}5h[2:1],,2,3,4,,
{8}7>2[4:1],,2,3,4>1[8:1],,
{4}8v3[8:1],4>1[8:1],8,
{4}4h[2:1]/5h[2:1],,,
{16}4,5,4,5,4,5,4,5,4,,,,
{4}34,2,1,
{4}87,6,5,
{384}3>6[2:1],4p5[2:1],,,
,,,,
,,,,
,,,,{24},,{8},,,,,
{4},,56,
{4}56,4,3,
{4}12,8,7,
{384}5V31[2:1],6>2[2:1],,,
,,,,
,,,,
,,,,{24},,{8},,,,,
{4},,,
{4}65,7,8,
{4}12,3,4,
{384}6<3[2:1],5q4[2:1],,,
,,,,
,,,,
,,,,{24},,{8},,,,,
{4},,43,
{4}43,5,6,
{4}87,1,2,
{384}4<2[4:3],3>5[4:3],,,
,,,,
,,,,
,,,,{24},,{8},,,,,
{4},,,
{4}4h[2:3],,,
{4},,,
{4}6V85[2:1],,,
{4},,5,
{4}5h[2:3],,,
{4},,,
{4}3V14[2:1],,,
{4},,4,
{4}3h[2:3],,,
{4},,,
{4}2qq6[4:3],,,
{4},,5,
{4}6h[2:3],,,
{4},,,
{4}7pp3[4:3],,,
{4},,,
(346){8}45,,,,3,5,3,5,4,6,4,6,
(173)
{8}3h[4:1],,4q8[8:1],4,2,,
{8}3h[4:1],,4q8[8:1],4,2,,
{8}1-4[8:1],,7p3[8:1],,3,2,
{4}1h[4:1],4h[4:1],3h[4:1],
{8}4<7[8:1],,3,2,1,,
{4}2h[4:1],4h[4:1],6h[4:1],
{4}8qq4[4:3],,3,
{4}4,2,3,
{8}2h[4:1],,1p5[8:1],1,3,,
{8}2h[4:1],,1p5[8:1],1,3,,
{8}4-1[8:1],,5,6,7,,
{8}8-5[8:1],,1,2,3h[4:1],,
{8}1p5[8:1],,4,3,2h[4:1],,
{4}6h[4:1],4h[4:1],5h[4:1],
{4}4w8[2:1],,,
{16},,,,,,,,3,5,3,5,
{8}3p7[8:1],,5-8[8:1],5,2,,
{8}3p7[8:1],,5-8[8:1],5,2,,
{8}2h[8:1],1h[8:1],3h[8:1],7h[8:1],5h[8:1],6h[8:1],
{8}3h[8:1],4h[8:1],2h[8:1],6h[8:1],8h[8:1],7h[8:1],
{8}1-5[8:1],,6,7,8h[4:1],,
{4}1>4[8:1],7-3[8:1],2q6[8:1],
{384}7q2[4:3],7!p4[4:3],,,
,,,,
,,,,
,,,,{24},,{8},,,,,
{4},,,
{8}5q1[8:1],,3-8[8:1],3,6,,
{8}5q1[8:1],,3-8[8:1],3,6,5,
{8}2h[8:1],4h[8:1],3h[8:1],4h[8:1],2,,
{8}6h[8:1],4h[8:1],5h[8:1],4h[8:1],6,,
{8}2V48[4:1],,5,6,7p2[8:1],,
{4}3p6[8:1],7p2[8:1],3p6[8:1],
{4}7h[4:3],,,
{16}2,8,2,8,2q5[4:1]*q5[4:1],,,,,,,,
{4}8b,,,
&inote_5=(173){1},
{1},
{4}4>2[12:1],5<7[12:1],4>2[12:1],
{384}5>6[8:3],5!<4[8:3],,,
,,,,
,,,,
,,,,{24},,{8},,,,,
{4}1bpp1[1:1],4,5,
{4}6,7,8,
{16}7h[2:1],,,,,,,,3h[2:1],,,,
{16}4h[4:1],,,,,,,,2,4,3,,
{16}3,5,4,,4,6,5,,5,6,7,8,1h[2:1],,,,3-7[8:1],,,,3,,,,
(346){2}1h[1:1],3-7[173#8:1],3,
(173)
{4}45,35,25,1>4[8:1],4-8[8:1],5<3[2:1],
{4}1h[2:1],,,1-5[8:1],5,6,
{4}57,47,37,2>5[8:1],5-1[8:1],1<3[2:1],
{16}6h[2:1],,,,,,,,,,,,2,3,2,,4,3,4,,3,4,2,5,
{4}1>4[8:1],8v3[8:1],7h[4:1],
{4}6<3[2:1],6,5,
{8}4,,34,5,3>8[8:1]/4,,
{8}36,,56,4,56,,
{4}8<5[8:1],1v6[8:1],2h[4:1],
{4}3>6[2:1],3,4,
{8}5b,,,,56,56,
{16}47,3,2,1,8,7,6,5,48,,,,
{32}8,7,6,5h[32:13],,,,,{4},8-4[8:1],
{4}3h[2:1]/8,,8-4[8:1],
{4}5h[2:1]/8,2,8-4[8:1],
{8}3h[2:1]/8,,6,,6,7,
{4}18,2-7[8:1],6-3[8:1],
{4}2-7[8:1],6-3[8:1],2-7[8:1],
{16}6h[8:5],,,,,,,,,,7,8,
{16}1,2,3,4,5,6,7,8,15,,,,
{8}2h[4:1],3,3qq1[6:1],,5,,
{8}7h[4:1],8,8qq6[6:1],,2,,
{8}2h[4:1],3,7h[4:1],8,1,,
{8}7h[4:1],6,3h[4:1],4,5,6,
{4}6,2q7[8:1],6q3[8:1],
{4}2q7[8:1],6q3[8:1],2q7[8:1],
{8}6h[2:1],,8,1,2,3,
{16}4,5,4,5,3,6,4,5,3,6,4,5,
{8}3-7[8:1],,3<6[8:1],6-2[8:1],3,,
{8}7-3[8:1],,7>2[8:1],2-6[8:1],7,,
{8}3<6[8:1],,6>3[8:1],,8,7,
{4}6-2[8:1],2-6[8:1],6,
{8}3,,46,35,2/4h[4:1],,
{4}2-4[12:1],4-1[8:1],1-5[8:1],
{32}5b,6,7,8h[32:29],,,,,{4},3-6[8:1],
{4}3,7v2[8:1],7,
{8}1-5[8:1],,1V72[24:5],6,1,,
{8}5-1[8:1],,5V74[24:5],4,3,2,
{8}1-3[12:1],,8qq6[6:1],7,8,,
{8}4-2[12:1],,5pp7[6:1],6,4,,
{8}1>4[8:1],,4>1[8:1],5,6,,
{4}7p5[4:1],7,1,
{8}2h[4:1],,,{24}2,3,4,7-2[8:1]/5,,,,,,
{4}7-4[8:1],7-3[8:1],7,
{16}12,,3,4,3v1[8:1],,5,,6,,,,
{16}87,,6,5,6v8[8:1],,4,,3,,,,
{8}2>5[8:1],1,5>2[8:1],,2,1,
{4}8-4[8:1],4-8[8:1],8<5[8:1],
{8}2,,34,25,1/6-2[8:1],,
{4}7-3[8:1],8-4[8:1],1-5[8:1],
{32}5b,6,7,8h[32:29],,,,,{4},3-6[8:1],
{4}3,7v2[8:1],7,
{16}24,,3,5,4h[4:1],,6,,6,,,,
{16}75,,6,4,5h[4:1],,3,,2,,1,,
{8}8q4[8:1],,7v5[8:1],6,2,,
{8}4q8[8:1],,3v1[8:1],2,6,,
{8}7p4[4:1],,4,3,2q7[8:1],,
{4}6q3[8:1],2q7[8:1],6q3[8:1],
{16}4,,,,4,5,4,5,4,5,4,5,
{16}3b,,,,2,3,4,5,6,7,8,1,
{4}2h[8:1]/4h[8:1],1h[8:1]/3h[8:1],2h[8:1]/5h[8:1],
{4}3h[8:1]/8h[8:1],1h[8:1]/6h[8:1],4h[8:1]/7h[8:1],
{384}5<8[8:1],8>3[8:1],,,
,,,,
,,,,
,,,,{24},,{8},,,14,,
{384}4>1[8:1],1<6[8:1],,,
,,,,
,,,,
,,,,{24},,{8},,,58,,
{4}6h[8:1]/8h[8:1],5h[8:1]/7h[8:1],6h[8:1]/1h[8:1],
{4}7h[8:1]/4h[8:1],5h[8:1]/2h[8:1],8h[8:1]/3h[8:1],
{384}1>4[8:1],4<7[8:1],,,
,,,,
,,,,
,,,,{24},,{8},,,58,,
{4}8h[2:1]/5h[2:1],,,
{4}2h[8:1]/4h[8:1],1h[8:1]/3h[8:1],2h[8:1]/5h[8:1],
{4}3h[8:1]/8h[8:1],1h[8:1]/6h[8:1],4h[8:1]/7h[8:1],
{384}5<8[8:1],8>3[8:1],,,
,,,,
,,,,
,,,,{24},,{8},,,14,,
{384}4>1[8:1],1<6[8:1],,,
,,,,
,,,,
,,,,{24},,{8},,,58,,
{4}6h[8:1]/8h[8:1],5h[8:1]/7h[8:1],6h[8:1]/1h[8:1],
{4}7h[8:1]/4h[8:1],5h[8:1]/2h[8:1],8h[8:1]/3h[8:1],
{384}1b>4[8:1],4b<7[8:1],,,
,,,,
,,,,
,,,,{24},,{8},,,58,,
{4}47,36,2>6[4:5]/5,
{4}2h[2:3],,,
{4},,,
{4}6p5[2:1],,,
{4}4,,6<2[4:5],
{4}6h[2:3],,,
{4},,,
{4}2p1[2:1],,,
{4}8,,7<3[4:5],
{4}7h[4:3],,,
{4},7,7,
{4}3q4[2:1],,,
{4}5,,3>7[4:5],
{4}3h[4:3],,,
{4},3,3,
{4}7q8[2:1],,,
{4}1,,,
(346){12}5,,,4,5,4,5,,,4,,,5,4,5,4,,,
(173)
{8}2-6[8:1],6,2>5[8:1],5-1[8:1],2,,
{8}7-3[8:1],3,7<4[8:1],4-8[8:1],7,,
{8}3<6[8:1],6,7-3[8:1],,3,2,
{4}1-7[12:1],1-3[12:1],1,
{8}56,,34,35,3/6h[4:1],,
{4}3-5[12:1],5-2[8:1],2-6[8:1],
{32}6b,7,8,1h[32:29],,,,,{4},2-6[8:1],
{4}2,3-8[8:1],3,
{8}6>3[8:1],,6V47[24:5],2,6,,
{8}1>4[8:1],,1V38[24:5],5,1,6,
{8}6,,3>8[8:1],4,3/6-2[8:1],,
{8}3,,6<1[8:1],5,6/3-7[8:1],,
{8}6,,56,45,3p6[8:1]/4,,
{4}7p2[8:1],3p6[8:1],7p2[8:1],
{8}3h[8:5],,,,4,4,
{16}3,4,3,4,2,5,2,5,1,6,1,6,
{16}8V26[4:1],,7,7,8,,6,,5,,5,,
{16}4V26[4:1],,5,5,4,,6,,7,,7,,
{8}8-4[8:1],8,2-6[8:1],2,3-7[8:1],3,
{8}4-8[8:1],4,6,6,7,7,
{16}18,,2,2,1,,2,,3-7[8:1],,3,,
{8}6-4[12:1],6,2-8[12:1],2,{384}7-3[8:1],7!-4[8:1],,,
,,,,
,,,,
,,,,{24},,{8}7,
{8}7b,,,4,35,35,
{16}2,3,2,,4,3,4,,3,4,2,5,
{16}1-5[8:1],,7,7,1V38[24:5],,7,,1,,6,,
{16}5-1[8:1],,3,3,5V74[24:5],,3,,5,,2,,
{8}1>4[8:1],4>1[8:1],1,7,6,,
{8}5<8[8:1],8<5[8:1],5,3,4,,
{16}3,,4,4,3h[8:1],,2,,3h[4:1],,4,,
{8}7h[4:1],8,3h[4:1],4,7h[2:1],8,
{16}6,5,4,3,2,1,8,7,6,5,4,3,
{4}26,2q5[4:1]*q5[4:1],2,
{4}8b,,,
