&title=ひめごとリップ
&artist=TRINITYAiLE
&first=0.12
&des=优吐着舌头舔我的冰激凌
&des_5=优吐着舌头舔我的冰激凌
&lv_5=13
&inote_5=(140){4},,,,,4-1[2:1],
,,,5-8b[2:1],
,,,4>1[2:1],
,,,5<8b[2:1],
,,,1>4[4:1],
{8},6,,5,
6,7p3[4:1],,,C,,,2/8,
,,{4}8<5[4:1],{8},3,,4,
3,2q6[4:1],,,8<4[4:1],,,3,
2,1,{4}8/C,{8},5/8<5[4:1],,,{4}3,
4/1>4[4:1],{8},7,{4}8>3[16:3],
{8}4>8[4:1],4x,,5,6,7xqq4[8:3],,1-3[8:1],
2,1x-7[8:1],,1x>7b[8:3],,,,,{4}A3/E4/D4,
B1/E2/A1f,{16},,3,4,,,{8}5/2v3-5[16:5],
,,{4}6h[4:1],{16},,5,7,,,{8}2/4v7[16:3],
,,{4}2,{16},,6,5,,,{8}4/7v6-4[16:5],
,,{4}3h[4:1],{16},,8,2,,,{8}5/7v2[16:3],
,,{4}3,2/4,1/3,
{8}2,4,3/1,2/4,{4}1/3,{8}5/7,5/3,
{4}7/5,{16}3,4,3,4,{8}3,2b/5b,,2,
5s1[2:1],4z8[8:3],,,,,,,{4}C,
3-5[8:1],{8},6,{16},6h[16:5],,,,,,,{4}5-3[8:1],
{8},2,{16},2h[16:5],,,,,,,{4}8-6[8:1],
{8},5,{16},5h[16:5],,,,,,,{4}3/7<4[8:1],
{8}2,1,{4}8-4[8:1],
{1}4qq4[2:1]*pp4[2:1],
{8}6,2,{4}7-1[8:1],{8},2,{16},2h[16:5],,,,,,,{4}3v6[8:1],
{8},8v3[8:1],,,,2/6,
,3/7,2/6,3/7,2v4[8:1]/6v8[8:1],7/3,
{4}2b/6b,{8}2,{16}6,5,,3,{8}4,7/5,6,
2/4,3,{16}5h[16:3],,,6h[16:3],,,{8}7h[16:3],{16},8h[16:3],,,{2}1<6[8:1],
{16}2,4,3,4,{8}2-8[8:1],1,
7-4[8:1],6,7/1-5[8:1],2,1/6p2[8:1],7,{4}6/8-4[8:1],
{2}8<5b[8:1]*>3[8:1],{16}4x/5x,3/6,2/7,1/8,{48}E2/E8,B2/B7,B3/B6,E4/E6,,,,,,,,,{8}6/4,
3/7,,3/5,{2}2/6<8[8:1],
{8}8,6/2-4[16:1],,5,6,7-5[8:1],,4,
3,2,{4}2h[4:1],7h[4:1],4h[4:1],
5h[4:1],7bx>2b[4:3],E1,C,
E5,3xp6b[4:3],E5,C,
E1,4x,A5,6x/5x,
A7,4x/2x,{8}D1,7,7/5,8,
2/4,1,{4}5/6<1[16:3],{16},,,2h[16:3],,,{8}3h[4:1],
,5h[8:1],{4}4<7[16:3],{8},,2h[8:1],1x<6[16:3],
,5x,{4}3,1/5,7/3,
1/5,{8}8/1,8/2,8/3,8/4,8/5,8/6,
{4}7/8w4[8:1],B8f,{8}6,{16}2,1,{8}3,{16}7,8,
7,8,7,8,{8}6-1[8:1],1,2-5[8:1],3,5,6,
7,8,1b/6b,{16}3,4,{8}3,{16}7,8,{8}6,{16}2,1,
2,1,{8}2,3/8-6[8:1],7,8/4-2[8:1],3,4/5-1[8:1],6,
5/4,3,{4}4b/2h[4:1],{16},,2,1,{8}2-4[8:1],4-8[8:1],
5,6,{4}7h[4:1],{16},,8,7,{8}8-4[8:1],1,
8/2,3h[4:1],,4-8[8:1],5,4b/6h[4:1],,5-1[8:1],
4,5b/3>6[4:1],,3b/8,,,4,4,
5/3,6/2,1b/7b,{16}3,4,{8}3,{16}7,8,{8}6,{16}2,1,
2,1,2,1,{8}3-8[8:1],8,7-4[8:1],6,4,3<5[8:1],
2,3b/1h[4:1],,2>5[8:1],1,2b/8h[4:1],,7<3[8:1],
8,7b/1,1-3[8:1],1,4-8[8:1],5,4/6p2[8:1],7,
6/8,7,{4}6b/8h[4:1],{16},,7,8,{8}7-5[8:1],5-1[8:1],
4,3,{4}2h[4:1],{16},,1,2,{8}1-5[8:1],8,
1/7,6h[4:1],,5-1[8:1],4,5b/3h[4:1],,8-4[8:1],
7,8b/6<3[4:1],,6b/4,,,5,5,
{4}5/4w8[4:3],4,{8},,,,,,6/4,
7,3/5,{16}2,5,3,4,{8}1,
{4}6/4-2[32:3],{8}7,{16}7,8,{8}6,4/5-1[8:1],,3,
{4}2h[4:1],{8}1,3/5,6/4,{16}7,4,6,5,{8}8-4b[16:1],
{48},,,,,,D3,B2,C,B6,{24}D7,
E
