&title=特殊作战:十字神明篇 theme182
&artist=Blue Archive
&first=-0.27
&des=小white君
&lv_6=13
&inote_6=(130)
{2},1/6-3[8:1],4/2-7[8:1],1-6[8:1]/5-2[8:1],
{1}8bq2[8:7]/4bq6[8:7],
{4},
{8}1x-6[8:1]*-4[8:1],C,,,
{16}2b,6,5,7,4,6,5,8,3-5[8:1],6,5,7,3,,,,2b,4,3,5,2,4,3,6,1v6[8:1],4,3,5,1,,,,
{16}4b,6,5,7,4,6,3,5,2v5[8:1],4,3,5,2,,,,6-1[8:1]*-3[8:1],5,,5,,,,,8x>3[8:1]*<5[8:1],,5x/3x,,,,,,
{16}6b,5,7,4,6,5,8,1,6b-4[12:1],5,7,2,,,,,3b,4,2,5,3,4,1,8,3b-5[12:1],4,2,7,,,,,
{16}6,5,8,1,4,3,8,1,6,5,8,1,
{4}Cf/B5/B4,E1,3h[4:1]/6,
{16}5,4,5,4,
{4}5<1[2:1],B2,1>5[2:1],B3,5<1[2:1],B2,5s1[8:1],
{4},5x<1[2:1],B2,1>5[2:1],B3,5<1[2:1],B2,5-1[12:1],,
{4}3b-8[8:1]/6,B7,2-5[8:1]/7,B6,
{16}3,,5,4,6,,6,4,5,,3,3,4-7[8:1]*-1[8:1],,E6/E3,,
{4},5-2[8:1]*-8[8:1],,1s5[4:2]*<1[4:3],,,,
{4}7b-3[12:1],4h[4:7]/7,7,7,7,7,7,7,7,7/4,7/4,8/4,8/4,7/3,6/2,1/5,
{32}8b/4b,1x/5x,2x/6x,7x/3x,,,,,
{8}8/4,4,4/6,4,4/1,4,4/3,4,7/4,7,7/2,7,7/5,7,7/3,7,
{16}1,8,1,8,2,2,5,5,4,6,4,6,1,1,7,7,3b,
{32}7x,6x,5x,,
{16}2,,6,6,6,4,5,4,5,
{32}2x,3,7x,6,1x,2,8,7x,1b,B1f,C,B5,,,,,
{16}6,5,6,5,7,7,4,4,5,3,5,3,6,6,5,5,7,4,7,4,8,8,2,2,4w8[8:1],,5/3,,Cf,,,,
{16}2,4,3,5,4,4,7,7,5,6,4,7,2,2,8,8,3,4,2,5,1,1,7,7,5x<8[8:1],5x,4x,4x,2b,,,,
{16}1h[16:1],7h[16:1],2h[16:1],6h[16:1],1h[16:1],7h[16:1],5h[16:1],4,1h[8:1],,
{32}B1,Cf,B5,,
{16}3,5,4,6,1,1,7,7,4,6,3,5,2-6[8:1],2,8,8,2b/Cf,,,,7,7,4,4,5,5,2,2,8,8,5,5,
{4}4bz8[6:1],,5w1[8:1],Cf,
{32}8b/2b,7/3,6/4,,,,,,
{16}2,5,2,7,2,6,2,8,2,7,2,6,3,7,3,5,3,8,3,7,4,6,4,8,4w8[8:1],,6x/2x,,Cf,,,,
{16}7,4,7,2,7,3,7,1,7,2,7,3,6,2,6,4,6,1,6,2,5,3,5,1,5w1[8:1],,3x/7x,,Cf,,,,
{16}2h[16:1],7h[16:1],3h[16:1],5h[16:1],4h[16:1],8h[16:1],2h[16:1],6h[16:1],1h[8:1],,
{32}B1,Cf,B5,,
{16}6x,4,6,3,6,2,6,1,6,1,6,2,6v1[8:1],3,6,4,6b,,,,2,8,2,7,2,6,2,5,3,3,6,6,4bz8[2:1],,,,,,,,,,,,
{4}Cf,7-4[8:1]/1,,2-5[8:1]/8,,7v4[8:1]/1,,2-7-2[6:1]/8,,6v1[8:1]/4,,3v8[8:1]/5,,6-2[8:1]/4,,3-7[8:1]/5,3b,
{4}1-4[8:1]/7,1b/2,1q5[8:1]/7,1b/3,1v4[8:1]/7,1b/2,1w5[8:1]/7,1b,8-5[8:1]/2,8b/7,8p4[8:1]/2,6/8b,8<8[3:1],,,
{16}2-6[8:1],1,2,1,2,,,,7b/8b,,6,4,5,3,4,2,5<2[4:1],3,6,4,5,,,,3b,,2,1,3,8,4,7,3<8[4:1],8,2,1,3,,,,5b,,
{16}1,5,2,6,3,7,4,8,3,7,2b-7[8:1]*v5[8:1],,,,,,,,6bw2[8:1],,,,,,,,8/4,,,,1b/7b,,
{16}6,5,7,3,4,2,8b>5[4:1],1,6,5,8b,,,,1b,,3,4,1,8,5,6,1b<4[4:1],8,2,4,1,,,,8b,,6,4,8,3,5,1,6b,4,8,3,5-1[8:1],,,,,,,,
{4}5w1[8:1],,3b/7b,
