&title=Weaponize
&artist=causeluve
&first=0.424
&des=FailClear
&lv_5=14
&inote_5=(152)
{1},
{1}5>1[4:6]/6,,
{1}4<8[4:6]/3,,
{16}2/7h[8:1],,2,,2,,2,,2/4h[8:1],,2,,2,,2,,
{16}2/1h[8:1],,2,,2,,2,,D4,D5,D6,,4,,5,,
{8}3h[8:1],4h[8:1],1,3h[8:1],4h[8:1],1,6h[8:1],5h[8:1],
{16}E8,E7,E6,,2h[8:1],,4h[8:1],,E2,E3,E4,,8h[8:1],,5h[8:1],,
{8}7x,,,7x,7-4-6-1[8:4]/4,,B3/A3/E4,,
{8},,,2x,2h[8:2]/8,,E7/B6/E6/A6,,
{8}4xh[8:3]/1x,,,1x,5/3V17[8:2],,5,,
{8}6h[8:3],,,8x,1/7V53[8:2],,1,,
{8}2x,,,2x,2-4-1-5[8:4]/4,,B6/A6/E6,,
{8},,,8x,8h[8:2]/5,,E3/B3/E4/A3,,
{8}2xh[8:3]/5x,,,5x,7-5-8[8:2]/4,,4,,
{8}3h[8:3],,,1x,2-5-3[8:2]/8,,8,,
{16}6hx[8:2],,,,5,,6x,,4-7[8:1]/5,,,,3,,3,,
{16}2/8h[8:2],,,,5,,6x,,3-8[8:1],5,4,,7,,,,
{16}6x-2[8:1]/1x,,,3,,,4x,,4^1[8:1]/8,,,8,,,6,,
{16}6x-2[8:1]/1x,,,3,,,4x,,4^1[8:1]/8,,,8,,,6,,
{16}2hx[8:2]/4x,,,,4,,2x,,5-2[8:1]/4,,,,7,,7,,
{16}6/1h[8:2],,,,4,,2x,,7-4[8:1],5,6,,3,,,,
{16}2x-6[8:1]/5x,,,7,,,1x,,1^6[8:1]/4,,,4,,,2,,
{16}2x-6[8:1]/5x,,,7,,,1x,,4,7,2,5,8b,,,,
{8}3h[8:1],4h[8:1],5,3h[8:1],4h[8:1],5,2h[8:1],4h[8:1],
{8}5,2h[8:1],4hx[8:1],5,2-6[8:1],1x,8,,
{8}7-3-8-5-2[8:5]/4h[8:8],,,,,,,,
{16},,4,,,4,,5,3h[8:1],,1h[8:1],,8h[8:1],,6h[8:1],,
{16}5x,7,4,7,5,4,3,2,18,7,6,5,3,4,2,4,
{16}3,4,1,4,3x,4,2,4,3,5,4x,6,2,8,3x,7,
{16}1x>6-8-3[8:6],,,,,,,,,,,,,,,,
{16}6h[8:4],,,,,,,,5,7,4,6,3,5,2,4,
{4}8-3[8:2],7,6-1[8:2],5,
{4}4-7[8:2],3,2-5[8:2],1,
{4}8V24b[8:2],6,5V71b[8:2],3,
{4}2V46b[8:2],8,7V13b[8:2],5,
{8}4x-1[8:1],2,4x/6x,8,5x-2[8:1]/7x-4[8:1],1,5x/7x,,
{8}5x-8[8:1],7,5x/3x,1,4x-7[8:1]/2x-5[8:1],8,4x/2x,,
{16}3,6,4,5,2,7,3,6,1,8,2,7,{32}1,2z6[32:23],3,4,5,6,7,8,
{1}5hx[8:6],
{16}46,,28,,7x^4b[8:1]/3x,,7x/3x,,{32}4b,3,2,1,,,,,
{16}1,1,7,7,2x,4,3,7x,5,6,3x,4,
{32}2b,3,4,5,6,7,8,1,{4}2x-5[8:1]/6x-1[8:1],
{4}26,{24}3,8,3,8,3,8,{4}5b,
{12}7h[384:1],7h[384:1],7h[384:1],
4hx[384:1],6h[384:1],1hx[384:1],6h[384:1],3hx[384:1],6h[384:1],
{8}8bV24[16:3]*V64[16:3],,,,
{16}3bx/5bx,,,,2x^5b[8:1]/6x,,2x/6x,,{32}5b,6,7,8,,,,,
{16}7,7,4,4,5,5,{32}2x,3x,4x,,{16}6,6,3,3,
{32}8bp4[8:1]*v5[8:1],7,6,5,4,3,2,1,{4},
{8}1bx/6bx,34,,2bx/8bx,3-8[8:1]/7-4[8:1],,3bx>5[16:5]/7bx,,
{16},,3,,,3,,,2/4,2h[16:1]/4h[16:1],,,7/5,7h[16:1]/5h[16:1],,,
{16}28,,64,,7x/3x,,7x/3x,,{32}4b/8b,37,26,15,,,,,
{16}2,4,3,5,4hb[16:1],6,5,8hb[16:1],5,6,2b,6,{32}1bx,2bx,3bx,4bx,,,,,
{16}7,5,6,4,5hb[16:1],3,4,1hb[16:1],4,3,7b,3,{32}8bx,7bx,6bx,5bx,,,,,
{16}2,5,4,6,5hb[16:1],7,3,4hb[16:1],1,6,5b,8,4b-1[8:1],4,,7,7b-5[8:1]*-3[8:1],,,,
{16}7b,,,,2hx[48:1]/6hx[48:1],,2hx[48:1]/6hx[48:1],,{32}5b/1b,62,73,84,,,,,
{16}7,3,7b,5b,6,3,4b,2b,5,4,7b,5b,{32}1bx,8bx,7bx,6bx,,,,,
{16}2,6,2b,4b,3,6,5b,7b,4,5,2b,4b,{32}8bx,1bx,2bx,3bx,,,,,
{16}7xv6-4b[16:3],,,,3xv2-8[16:3],,3x,,,,,,
{16}6b,6,8,7,3b,3,5,2,
{8}8xpp4>5[8:12]/Cf,,,,,,,,,,,,,,,,
{8}3xqq6<4[8:12]/4x,,,,,,,,,,B5/A5,,,E7/A6,,,
{8}7/5,,46,3/7,,2<6[8:3]*>6[8:3]/6,,,
{8},,,,7-3[8:1]/5,,3,,
{8}2/4,,35,6/2,,7V52[8:3]/3V16[8:3],,,
{8},,,,Ch[4:2],,,,
{16}8b,,,3,5,,26,,3/5h[8:2],,,,
{24}E1,E2,E3,E4,,,{24}D7,D8,D1,D2,D3,D4,
{4}1s5[8:2],6V47[8:2],,
{16}2,,,2,8,,37,,2h[8:3]/8,,,,
{24}E8,E7,E6,E5,,,{24}D2,D1,D8,D7,D6,D5,
{4}7>6b[8:2],8x/7x,,
{16}4x-1[8:1],7,4,7,4b,,,,4x-7[8:1],1,4,1,4b,,,,
{16}2x-6[8:1],8,2,8,2b,,,,7x-4b[8:1],1x-4b[8:1],6x,2x,,,,,
{16}5,5,3,3,6,6,2,2,{32}7,6,5,4,3,2,1,8,7-3[8:1],6,5,4,3,2,1,8,
{8}5xpp2[8:3]*qq8[8:3],,,,,,4b/6b,,
{32}8hx[8:1]/3x,4,,,,,7x/1hx[8:1],6,,,,,8x/2x,3,,,8b-5[16:1],,,,,,,,
{32}3bx-8[16:1],4x,,,,,6bx-3[16:1],7x,,,,,1bx-5[16:1],2x,,,,,1bx,,,,,,
{32}7q4b[32:5],8p3[32:4],1,2,3,4,5,6,,,,,,,,,
{32}1hx[8:1]/6x,5,,,,,2x/8hx[8:1],3,,,,,1x/7x,6,,,1b-4[16:1],,,,,,,,
{32}6bx-1[16:1],5x,,,,,3bx-6[16:1],2x,,,,,8bx-4[16:1],7x,,,,,8bx,,,,,,
{32}2,3,4,5,6,7,8,1,72,6,5,4,3,2,1,8,
{32}7b/3b,62,15,,,,,,8b,1/7,2/6,3/5,,,,,2b/1b,,,,7b/4b,,,,
{16}3,5,2,6,1,7,4b,6,3,7,2,8,{32}5bV31b[32:5],6V42[32:4],7,8,1,2,3,4,{4},
{16}7,1,6,2,4,3,8,2,7-3[8:1],3,6,5,7b,,,,
{32}2bx/5bx,3x/6x,4x/7x,5x/8x,,,,,7bx/4bx,6x/3x,5x/2x,4x/1x,,,,,{16}8-4[8:1],8,8,8,8b,,,,
{32}6bx,7,8,1,2,3,4bx-7b[8:1]/1bx-5b[8:1],,,,,,,,,,Cf,,,,,,,,
{32}1x^4[32:4],8,7,6,,,,,1,,,,8xV25[16:3],7,6,5,,,,,8,,,,
{16}6,6,3,3,7,4,5,2,
{16}4bx-7[16:1],,,4bx^1[16:1]/3x,,,4bx/6x,,5bhx[8:2],,,,
{16}1bx-5[16:1],,,1bx^6[16:1]/6x,,,1bx/3x,,2bhx[8:2],,,,
{32}7xv5b[32:4],8xp4[32:3]/3x,1x/4x,5x,,,,,,,,,,,,,
{32}2b-5[16:1]/6b-1[16:1],,,,,,2b/6b,,,,,,{24}7,4,7,4b,,,,,,
{32}3b-7[16:1]/6b-4[16:1],,,,,,3b/6b,,,,,,{24}1,5,1^4b[32:5],5b^8[32:4],,,,,,
{32}1b/5b,,,,,,,,5,6,7,8,1,2,3,4,
{16}7x,7,2,8,3-8b[8:1],5,4-7[8:1],6,3b,,4b,,
{16}1x,1,6,3,4,2,5,4,6b,5,8,3,
{16}7b,4b,6b,3b,5bw1b[8:1],2b,4b,1b-7-2-6-3-5[16:29],
{1}Cf,,
{8}6h[8:11],,,,,,,,
{8},,,E4,,,E6,,
{8}E5/6,6,5,4,6,6,5,4,
{8}6h[8:2],5,4,3,3h[8:2],4,5,6,
{8}7/4,6,5,4,6/3,5,4,3,
{8}2/5,3,4,5,3/6,4,5^3b[8:16],6^3[8:15],,
