&title=Techno Racer
&artist=Paul Bazooka
&first=0.02
&des=Better Eater
&lv_5=14
&inote_5=(142)
{1},,,,1>8[4:6]/5<4[4:6],,
{4}4h[8:1]/5h[8:1],4h[8:1]/2h[8:1],4h[8:1]/8h[8:1],4h[8:1]/6h[8:1],
{16}4h[8:1],8,,8,4h[8:1],,1,,4h[8:1],8,,8,4h[8:1],,1,,4h[8:1],8,,8,4^1[8:1],,1^4[8:1],,8^5[8:1]/4,,,,8,,,,
{16}5h[8:1],1,,1,5^8[8:1],,8^5[8:1],,1^4[8:1]/5,,,,1w5[8:1],,,,
{16}1b,,,,,,2,,34,,6,8,,,2,,
{16}34,,6,8,,,2x,,34,,6x,8,4x-8[8:1],,,,
{16}4b/2,,,,8,,2,,4z8[8:1]/3,,6,8,,,,,
{16}43,,6,8,,,2,,4,,8,,1-5[8:1],2h[32:1],3h[32:1],4h[32:1],
{16}1b/5,,,,,,7,,65,,3,1,,,7,,
{16}65,,3,1,,,7x,,65,,3x,1,5x-1[8:1],,,,
{16}5b/7,,,,1,,7,,5s1[8:1]/6,,3,1,,,,,
{16}1h[32:1]/2h[32:1],,8h[32:1]/7h[32:1],,5,5,5,5,{24}8xv1[8:1],4xv5[8:1],8x,4x,8x,4x,,,,,,,
{32}2/7-3[8:1],3/6,4/5,,{16},,7^4[8:1]/5,,,,7>2[8:1],,2<7[8:1],,
{16}7p2[8:1],,4,,3p6[8:1],,,,3/5pp4[8:2],,,,5/1,,,,8^3[8:1],,4^7[8:1],4,
{16}8,,,,2,,1,8,75,,{8}54,24,2,28,17,8-4[8:1]/6,2-6[8:1],8>3[8:1],2,8z4[16:3]*s4[16:3],,
{8},,3>8[8:1]/5,,8>5[16:3],,5<1[16:3],,1<4[16:3],,4>6[16:4],,8h[8:1],,{16}1,,5,5,
{8}84,73,62,51,78,56,34,12,
{24}1x,8x,1x,8x,1x,8x,2x^4[24:3],7x^5[24:2],2x,7x,2x,7x,{8},,Ch[8:1],,
{16}74,,5-2[8:1],5,7-4[8:1],,5<4[16:4],,7,,,,Ch[8:1],,,,
{16}2,2,4-7[8:1],4,2-5[8:1],,4>5[8:2],,2,,,,Ch[8:1],,,,
{16}7/3,,5-8[8:1],5,7-2[8:1],,5<4[8:2],,7,,,,Ch[8:1],,,,
{16}17,,2,1,3,,4qq5[8:2]/7,,,,5,,6,,8,,
{16}15,,4-8[8:1],8,2-6[8:1],,4>5[8:2],,2,,,,Ch[8:1],,,,
{16}4,8,5-1[8:1],1,7-3[8:1],,5<4[8:2],,7,,,,Ch[8:1],,,,
{16}15,,4-8[8:1],8,2-6[8:1],,4>5[8:2],,2,,,,Ch[8:1],,,,
{16}1h[8:1],,5h[8:1],,1,1,5,5,1w5[8:1],,37,,,,,,
{32}2h[8:1],,,,8,B8,,,4h[8:1],,,,6h[8:1],,,,8,B8,,,4h[8:1],,,,
{32}2h[8:1],,,,8,B8,,,4h[8:1],,,,6h[8:1],,,,8,B8,,,4h[8:1],,,,
{32}2h[8:1],,,,8,B8,,,5h[8:1],,,,4h[8:1],,,,
{32}3h[8:1],,,,1,B1,,,5h[8:1],,,,7h[8:1],,,,1,B1,,,5h[8:1],,,,
{32}3h[8:1],,,,1,B1,,,5h[8:1],,,,8,B8,,,4h[8:1],,,,6h[8:1],,,,
{32}8,B8,,,4h[8:1],,,,2h[8:1],,,,6h[8:1],,,,
{32}3h[8:1],,,,5,B5,,,1h[8:1],,,,7h[8:1],,,,5,B5,,,1h[8:1],,,,
{32}3h[8:1],,,,5,B5,,,1h[8:1],,,,7h[8:1],,,,5,B5,,,1h[8:1],,,,
{32}3h[8:1],,,,5,B5,,,8h[8:1],,,,1h[8:1],,,,
{32}2h[8:1],,,,4,B4,,,8h[8:1],,,,6h[8:1],,,,4,B4,,,8h[8:1],,,,
{32}2h[8:1],,,,4,B4,,,{8}2/B6,1/B5,8/B4,7/B3,15,4,{16}2,7,3,6,
{8}4/5-8[8:1],,,,26,4,{16}3,4,5,6,7-4[8:1],,4V61[16:3],,3qq7[16:5]/7,,2,,,,,,8s4[16:3],,,,
{8},,2-5[8:1],5-1[8:1],2,8,6pp5[8:2]*>3[8:1],7,,,2h[16:1],6h[16:1],4V28[8:1],37,6/4pp3[8:2],5,
{8}3>6[8:2],,1p4[16:3],,4V68[16:3],,1>6[16:3],,6V42[16:3],,8,,{16}6,6,8,8,1,1,3,3,
{16}7pp1[8:1],,2pp4[8:1],,,,,,{32}8V25[16:3],7,6h[16:3],,,,,,{8}8qq1[8:2],7,
{8}8,4pp3[8:2],,4,1w5[8:1],,1b,,
{8}52,8,71,6,57,8,13,4,25,7,58,2,14,3,56,8,
{16}7/3>8[8:1],6,5,4,3,,,,8/4>1[8:1],7,6,5,4,,,,
{16}1/5>2[8:1],8,7,6,5,,,,2/6>3[8:1],1,8,7,6,,,,
{8}1-5[8:1],1,2-6[8:1],2,3-7[8:1],3,4-8[8:1],4,
{8}5-1[8:1],5,6-2[8:1],6,7-3[8:1],7,8,2,
{16}4h[8:1],,8,4,2,6h[16:3],,,2,6,4,8h[16:3],,,4,8,6,2h[16:3],,,5b,1b,3b,7b,Ch[8:1],,,,4-7[8:1],,,,
{8}14,3,5-1[8:1]/8,1-3[8:1],6V84[8:2]/5,4,6,5,
{16}8xh[8:1],,6,4,7h[8:1],,6,8,1h[8:1],,3,2,4,,8h[8:1]/3,,
{16}5h[8:1],,1,5,7,3h[16:3],,,7,3,5,1h[16:3],,,5,1,3,7h[16:3],,,4h,8,6h,2,8h,4,6h,2,Ch[8:1],,,,
{8}8h[8:1],6,4-8[8:1]/1,8-6[8:1],3V15[8:2]/4,5,3,4,
{16}1xh[8:1],,3,5,2h[8:1],,3,1,8h[8:1],,6,7,5,,2h[8:1]/6,,
{16}4h[8:1],,8,4,2,6h[16:3],,,2,6,4,8h[16:3],,,4,8,6,2h[16:3],,,5h,1,3h,7,1h,5,3h,7,{32}B3,B4,B5,B6,B7,B8,B1,B2,
{16}5h[8:1],,4>2[16:1],6,5,7,,,8<6[16:1],2,1,3,,,4-1[16:1],6,5,7,,,
{16}8,2,1,3,4,2,7,8,{32}6,5,4,3,2,1,8,7,
{16}3x,3,5,5,7,7,1,1,8,8,6,6,4,4,2,2,
3x,4,2,8,5,6,8,7,2x,1,3,5,4,7,2,5,
{16}3x,7,5,6,4x,5,3,3,1x,2,4,3,7x,4,1,2,
4x,3,6,5,7x,8,6,1,
{16}5x/1,4,3,2,1x/5,8,7,6,
{16}2x,1,8x,7,6/3x,2,1x,8,7/5x,4,3x,2,1/6x,5,4x,3,
{32}8,1,2,3,4,5,6,7,1,2,3,4,5,6,7,8,2,3,4,5,6,7,8,1,3-7[8:12],4,5,6,7,8,1,2,
{4}3b/5b,,,,,,
E
