&title=フィクションです。
&artist=Chenomio
&first=0
&des=厶乙乃
&lv_5=14
&des_5=厶乙乃
&inote_5=
(162){4},,,,,,,,6/3h[4:1],
{8}4,4,{4}5h[4:1],{8}3,2/4,
,1,4>2[8:1],5,{4}6,4,
4/6h[4:1],{8}5,5,{4}4h[4:1],{8}7,6/5,
,4,{4}3/5,{2}2-4[8:1]/6-4[8:1],
{4}6/3h[4:1],{8}5,5,{4}4h[4:1],{8}6,7/3,
,8,5<7[8:1],4,{4}3,5,
5/3h[4:1],{8}4,4,{4}2h[4:1],{8}1,3/4,
,5s1[8:3],{4}4z8[4:1],,,2/7,
{8}6,5,{4}7/4,{8}3,3/4,
,6,6/5,{16}2,4,3,6,4,6,{4}5h[4:1],
8,{8}3,4,{4}5/2-5[8:1],{8}6,6-2[8:1],
,4p1[8:3],,,,,{4}8,
7/1,{8}6,5,{4}7/4,{8}3,3/4,
,6,6/5,{16}2,4,3,6,4,6,{4}5h[4:1],
8,{8}6,5,4/7,2/6,3/7,5-8-5[8:3]/1-4-1[8:3],
,,,,,,{4}7/3,
{8}1/5,2,3/7,8,1/5,6,7/3,4,
5/1,{16}6,5,{8}7,{16}2,1,{8}3,8,5/7,6/4,
5/3,6,7/3,4,5/1,2,3/7,8,
1/5,7h[8:1]/5h[8:1],,4/3h[4:1],,1,8-4[8:1],7,
{4}6/8,{8}8h[8:1],1,{4}2/7,{8}3/4,{16}6,5,
,3,{8}4,7>4[4:1],6,{4}5,1,
8q4[8:1]/2v5[8:1],2b/8b,{8}4/7,6/2,7/3,1pp8[8:3]/5pp4[8:3],
,,,,,,{4}4/8,
{8}5/6,{16}3,4,{8}2,5,{16}3,4,3,5,{8}2,8,
6/5,{16}3,4,{8}3,5/2,4,4,1,8,
7/5,4,3/5,7,5/6,1,3/4,8,
{4}5b/6bz2[4:1],,,1/8,
{8}2/Cf,{16}6,5,{8}7,3,2/8,7,1/6,2,
3/7p3[8:1],{16}6,4,{8}7,2,{4}1-4[8:1]*-6[8:1],1,
{8}7/5,{16}3,4,{8}2,6,7/8,2,1/3,7,
5/6,{16}3,4,{8}2-4qq3[4:1],1,{4}5,8h[4:1],
E6f/A5/A6/D6,{8}7/8-4[8:1],1,{4}2/8,{8}6/8-4[8:1],1,
{4}2/8,{16}7,8,6,8,7<4[8:1],,,5,{8}7,2,
{16}1x,2,3,4,8x,1,2,3,7x,8,1,2,6x,7,8,1,
{8}5/2,{16}3,2,{8}1/8-4[8:1],7,8/2-5[8:1]*-7[8:1],3,{4}2b,
{8}4bx/2,{16}6,5,{8}7,3,2/8,7,1/6,2,
3/7p3[8:1],{16}5,4,{8}7,2,{4}1-4[8:1]*-6[8:1],1,
{8}7/5bx,{16}3,4,{8}2,6,7/8,2,1/3,7,
5/6,{16}3,4,{8}2-4qq5[4:1],1,{4}5,8h[4:1],
E6f/A5/A6/D6,{8}7/8-4[8:1],1,{4}2/8,{8}6/8-4[8:1],1,
{4}2/8,{16}7,8,6,8,7bx-4[16:1],,,5bx-1b[16:1],,,{8}6bx,
{16}8bx-4b[16:1],,,1b-6b[16:1],,,{8}7b,{16}5bx-3b[16:1],,,2b-6b[16:1],,,{8}7b>5[8:3],
,,,,8,{32}1x,2x/8x,3x/7x,4x/6x,{4}5bx,
1/8w4[8:1],8b,{16}7,8,6,8,{8}7,7,
{16}2,1,3,1,{8}2,2,{16}5,4,6,3,{8}5,4,
{16}1x,2,3,4,8x,1,2,3,7x,8,1,2,6x,7,8,1,
{8}2-8[8:1]/4-6[8:1],3,{4}2/4,{8}7/3,3/7,{4}A1/A5/B1/B5,
{16}7,8,6,8,{8}7,7,{16}2,1,3,1,{8}2,2,
{16}5,3,6,4,{8}7,7,{16}4,5,3,4,{8}1,1,
{16}8x,7,6,5,1x,8,7,6,2x,1,8,7,{8}3x,5/1,
,E7,E3,{16}E6,E5,{8}E4,C,{4}B2/B7/E2/E8,
{32}2bx/6bx,3x/7x,,,,,,,,,,,,,,,2bx/6bx,3x/7x,{16}4x/8x,{32},,,,,,,,,,,,2bx/6bx,
3x/7x,8x/4x,1x/5x,,,,,2bx/6bx,3x/7x,8x/4x,1x/5x,,,,,2bx/6bx,3x,4x,5x,2bx,1x,8x,7x,2bx-6[8:1],3x,4x,5x,2bx,1x,8x,7x,
{4}2bx,3/7,{8}6x-4[8:1],{16}7,5x,{8}6,8x,
1x/7-3[8:1],6,3/7x,5,4x,{16}3,4x,{8}2-8[8:1],5x,
2x-4[8:1],7,2x,1,8x,{16}7,5x,6,5,{8}8x,
1x-5[8:1],5,1x,7,8x-6[8:1],6,8x-2[8:1],1,
8x,7-3[8:1],6/4x,7,6x-4[8:1],{16}7,5x,{8}6,1x,
8/2x-6[8:1],3,4/2x,5,5x,{16}6x,5,{4}4x/8xz4>3-5<7[4:3],
{1}8h/Cf,
{8}1x/8x,{16}E2,E3,{8}E4,{16}E8,E7,{8}E6,D1,{4}C/E7/B7,
{8}3/5x-3[8:1],2,6/5x,8,3/5x-3[8:1],{16}7,5,{8}6,8,
3/5x-3[8:1],2,5x/6,8,3/5x-3[8:1],{16}7,5,{8}6,8,
3/5x-3[8:1],2,5x/6,8,3/5x-3[8:1],{16}7,5,{8}6,8,
{4}3/5x,{16}6,6,5,5,{8}8,{16}7,8x/6x,,2,{8}1x/3x,
{4}6/5-7[8:1],{8}3/5x,4,6/5x-7[8:1],{16}2,4,{8}3,4,
6/5x-7[8:1],4,3/5x,4,6/5x-7[8:1],{16}2,4,{8}3,4,
{4}6/5x-7-5[4:3],{12}4,4,4,4,4,4,4,4,4,
{4}4b,{8}4/5,{24}E6,B5,B4,{8}E4/7-4[8:1],8-3[8:1],7b,8b,
{1}1>8[4:5],
{4},,1h[4:1],{16}2,2,2,2,
2,2,2,2,2,2,2,2,2,2,2,2,2h[32:1],2h[32:1],2h[32:1],2h[32:1],
2h[32:1],2h[32:1],2h[32:1],2h[32:1],{4}2b<4[8:3],{8},,,,Cf,
{16}3,5,{8}1,6,8/1-5[8:1],2,1/4,3,
5/2q6[8:1],{16}1,4,{8}2,7,{4}8-5[8:1]*-3[8:1],8,
{8}6/5,{16}3,4,{8}1,6,1/8-4[8:1],7,8/5,6,
4,{16}3,4,{8}2-4qq5[4:1],1,{4}5,8h[4:1],
E7f/A6/A7/D7,{8}6/8-4[8:1],1,{4}8/2>5[8:1],{8}8-4[8:1],1,
{4}2/8,{16}7,8,6,8,7<4[8:1],,,5,{8}7,2,
{16}1x,2,3,4,8x,1,2,3,7x,8,1,2,6x,7,8,1,
{8}2/5,{16}3,2,{8}1/8-4[8:1],6,8/2w6[8:1],3,{4}2b,
{32}A3f,A2f,A1f,A8f,A7f,A6f,A5f,A4f,{4}7/D3f/A2/E3/A3,{16}7,8,6,8,{8}7,1,
5/2q6[8:1],{16}3,1,{8}2,7,{4}8-5[8:1]*-3[8:1],8b,
{8}6/5,{16}3,4,{8}1,6,8/7-3[8:1],6,7/4,5,
4,{16}3,4,{8}2-4qq5[4:1],1,{4}6,8h[4:1],
E7f/A6/A7/D7,{8}6/8-4[8:1],1,{4}8/2>5[8:1],{8}8-4[8:1],1,
{4}2/8,{16}7,8,6,8,7bx-4[16:1],,,5bx-1b[16:1],,,{8}6bx/5b,
{16}8bx-4b[16:1],,,1b-6b[16:1],,,{8}7b/1b,{16}5bx-3b[16:1],,,2b-6b[16:1],,,{8}2b/7b>5[8:3],
,,,,7,{32}1x,2x/8x,3x/7x,4x/6x,{4}5bx,
1>4[8:1]/8<5[8:1],1b/8b,{16}8,7,6,5,1,2,3,4,
7,5,6,4,{8}8,1,{16}2,4,3,5,{8}1,8,
{16}7,5,6,4,8,1,7,1,4,3,5,2,8,1,7,1,
{8}5,3/4,1/8,{32}2,3,4,5,{8}1-6[8:1]*-4[8:1],8/2,{4}1b,
{16}7x,6,5,4,8x,7,6,5,1x,8,7,6,2x,1,8,7,
3x,2,1,8,4x,3,2,1,5x,4,3,2,6x,5,4,3,
{8}7x,6/5,1x,3/4,{16}8-4[8:1],1,6-2b[8:1],3,{8}8b,{16}6b,Cf,
E
