&title=Dèfandour
&artist=BlackY
&first=0
&des=Tail_R
&lv_5=14
&inote_1=
&inote_5=(154)
{1},
{16},,,,,,,,3,4,5,6,3,4,5,6,
{4}1bV35[2:1],5,6,7,
{4}8/2V46[2:1],6,7,8,
{4}3V52[2:1]/1,5,6,7,
{4}8qq4[8:5]/1,2,3b-8[8:1],,
{16}1h[16:3]/5b,,,7b,,,1/3,,2h[16:3]/4b,,,6b,,,1/8,,
{16}3h[16:3]/5b,,,7b,,,1/2,,4h[16:3]/6b,,,8b,,,1/7,,
{16}2b,4,2,4,1,5,1,5,8,7,8,7,1,8,1,8,
{4}2b-6[8:1]*-5[8:1],,7-4[8:1]/8^3[8:1],,
{16}2,3,4,5,8,7,6,5,3h[8:1],,4,4,2h[8:1],,5,5,
{16}1,2,3,4,7,6,5,4,2,6,4,5,3,7,1,8,
{16}2-5[8:1],,1,1,2b,,8,,7-3[8:1],,3,3,7b,,2,,
{16}1-5[8:1],,5,5,1b,,6,,7,8,6b,3,4,2,8b,1,
{16}7-4[8:1]/2,,1/8,,7b/2,,,,5h[8:1],,4,4,6h[8:1],,8,8,
{16}7b,1,6,2,5,3,6,4,{32}7b,6,5h[8:1],,,,1b,2,3h[8:1],,,,8b,7,6h[16:1],,
{16}3,3b,4,2,6,6b,5,7,2,2b,4,3,7,7,1,8,
{16}3b,4,2,7b,5,6,1b,8,{16}2,2,4,4,5,5,7,7,
{1}1b>8[2:3],
{1},
{4}2h[2:1],3,4h[2:1],5,
{16}6<4[2:1],,,,5,,,,6,,,7b,7h[4:1],,5,,
{4}4b^1[4:1],1^6[4:1],6V48[4:1],4,
{4}7b-3[4:1],3-6[4:1],6V84[4:1],1,
{8}3b-7[8:1],5-8[8:1],3b,5,{16}2b,3,4,5,{24}8b,7,6,5/4,3,2,
{4}1b-6[8:1]*-5[8:1],,4w8[8:1],,
{16}1b-5[8:1]/6b-2[8:1],,,,,,,,3b/4b,,2-5[8:1],2,2,2,2,,
{16}7,,6^1[8:1],6,6,6,6,,{32}3,4,5,,,,2,3,4,,,,1,2,3,4,
{16}5b,,7-3[8:1],7,7,7,7,,2h[8:1],,1,,3,4,3,4,
{16}2-5[32:3],,5,5,2-8[32:3],,8,8,2-6[8:1],,,6,,,7,,
{16}8bs4[8:1]*-4[8:1]/1,,,,,,,,5b/6b,,7v4[8:1],7,7,7,7,,
{16}3,,2-7[8:1],2,2,2,2,,6,,4,5,3,6,4,5,
{16}2,4,3,4,2,5,4,5,3,6,5,6,4,7,5,6,
{16}5b,4,3,2,5,6,7,8,2,1,2,8,3,7,3,6,
{16}2b-6[8:1]*s6[8:1],,,,,,,,7b/8b,,1-5[8:1],1,1,1,1,,
{16}7,,6,5h[8:1],,7,5h[8:1],,8bw4[8:1],,,,,,,,
{32}3/6,,,,7/1,,,,4b/2h[32:3],,,4b,,,4b,,{16}2q6[8:1],,1,1,2b,,7,,
{16}5/6,,8-4[8:1],8,8,8,8,,3b-6[8:1]*-5[8:1],,,,,,,,
{16}7b-4[8:1]/8,,,,4,,3,3h[16:3],5,,7,7h[8:1],,4,5,3,
{16}6b,,2,8h[32:5],{32}1b,,,1b,,,1b,,{16}8-4[8:1],,3,3,8b,,2,,
{16}2b,4,3,6,5,7,1,8,3b,1,2,7,8,6,4,5,
{16}3b,3,4,2,7,7,5,6,{24}2b,3,4,5,6,7,{32}1,2,3,4,5,6,7,8,
{1}1b>8[4:3],
{1}6qq3[4:3],
{1}2qq6[4:3],
{2}7qq1[2:1],4h[2:1],
{1}8<4[2:1]*qq3[2:1],
{1}2V47[2:1]/5V38[2:1],
{1}1pp4[2:1]/7qq4[2:1],
{2}3>5[2:1]/5,6h[2:1],
{16}4h[8:1],,6,5,6h[16:5],5,,4,,3,,2,4,2,4,3,
{16}5h[8:1],,3,4,3h[16:5],4,,5,,6,,7,5,7,5,6,
{16}4h[8:1],,1,2,1h[16:5],2,,3,,4,,5,6,4,7,3,
{16}8h[8:1],,1,7,2,6,3,5,4b-8[8:1],,,5,,,6,,
{16}7h[4:1],,2,,2,,3,4,{24}3b,4,3,4,3,4,3,4,3,4,3,4,
{24}3,4,3,4,3,4,3,4,3,4,3,4,3,4,3,4,3,4,3,4,3,4,3,4,
{8}3b>5[2:1],,,,,,,,
{8}3qq6[2:1]*qq5[2:1],,,,,,,4/7,
{16}8h[16:3]/3b,,2,2b,,6,8/6,,7h[16:3]/5b,,3,3b,,1,8/1,,
{16}6h[16:3]/4b,,2,2b,,7,8/7,,5h[16:3]/3b,,1,1b,,8,8/2,,
{16}3b,4,1,8,4,5,1,8,5b,6,1,8,2,7,4,5,
{2}3b-7[8:1]/6b-2[8:1],1s5[8:1]/8z4[8:1],
{16}2b,4,1,8,3,3,5,4,6,5,7,1,8,8,1,7,
{16}4,5,2,1,3,3,4,2,8b^5[8:1],,4,4,,3,3,,
{16}4/1,,2,3,1,8,4,4,6,5,7,4,8,3,1,1,
{16}3,4,1,4,3,5,1,5,2-6[8:1],8,3,4,2b,,7,,
{16}7b,5,8,1,6,6,4,5,3,4,2,8,1,1,8,2,
{16}5,4,7,8,6,6,5,7,1b-5[8:1],,5,5,,6,6,,
{24}1/7-3[8:1],,,2,3,4,5/7b,,,1,,,3-8[8:1]/5,,,8,7,6,5/3b,,,7,,,
{16}1b,3,1,4,1,5,1,6,{24}2b,3,4,8b,7,6,1b,2,3,7b,6,5,
{16}4w8[8:1],,,,4b,,,,2/6,,2/6,,3/4,,2,1,
{16}3-8[8:1],,8-4[8:1],8,,7,7,,6-2[8:1],,2-5[8:1],2,,1,1,,
{16}8h[8:1],,6,6,4,5,3,4,2,1,2,8,2,7,2,6,
{16}3,5,1,1,7,5,6,6,2^5[8:1],,{24}5,6,7,8/2b,,,1h[8:1],,,
{4}4b>7[4:1],,5bV31[16:3],,
{16}6b^3[8:1],,7,7,,8,8,,{16}1b/2,,3,3b/4,,4,4b/5,,
{16}6b,5,7,3,4,3,6,5,8b,2,1,4,5,5,4,6,
{16}3b,3,5,5,7,7,1,1,{24}3h[8:1],,,7,2/6,1/5,4^7[8:1]/8^3[8:1],,,,,,
{1}8bpp3[2:3]/4bpp7[2:3],
{1},
{4}6h[4:1]/4,5b,3h[4:1]/5,4b,
{16}4/7,,,,5b/6b,,,,2/4,,3,5h[8:1],,4,6h[8:1],,
{16}5,,5/6,,7-4[8:1]/5h[4:1],,,,7b,,2,2,5,4,6,6,
{32}8b,1,2,,5,,5,,1b,2,3,,6,,6,,2b,3,4,5,6h[16:1],,1b,2,3,4,5h[16:1],,8b,1,2,3,
{16}4,7b,7,5,6,3,4,1,8,2,2,4,3,6,5,8,
{24}2b,3,4,5,6,7,1,2,3,4,5,6,{32}8-4[8:1],1,2,3,4,5,6,7,8b,,,,,,,,
{16}3b,5,7h[384:1],3,1h[384:1],7,2b,8,6h[384:1],2,4h[384:1],6,8b,4,2h[384:1],8,
{16}5h[384:1],7,1b,5,3h[384:1],1,5h[384:1],7,1b,5,3-8[8:1],,,,3b/5,,
{24},,7,8,7,8,7,8,7,8,7,8,{32}7,6,5,4,3,2,1,8,7/2-6[8:1],3,4,5,6,7,8,1,
{1}2b,
