&title=谱师的一生
&artist=ヨルシカ
&first=0
&des=选择你的结局
&lv_5=赛
&inote_5=(125){16},,{8},,,,,,,,,,,45,,45,,
{4}6-8-5-2-4[8:4],,,,4-2-5-8-6[8:4],,,,
2-6>5-7-1[8:4],,,,1<4[8:4],,1-4[8:2],,
{4}8-5-3[8:4],,,,
2v3-1-5[8:4],,,,
1s5[8:4],,,,
7-1[8:4]/8-4[8:4],,,,
{4}8-5[8:2]/4v1[8:2],,,,1>1[8:4],,,,
6-8-5-2-4[8:4],,,,8-4[8:1]/2,2-6[8:1]/8,7-3[8:1]/2,1-5[8:1]/7,
{4}6-8-5-2-4[8:4],,,,4-2-5-8-6[8:4],,,,
2-6>5-7-1[8:4],,,,1<4[8:1],7>2-6-3[8:1],A7/B7/C/B3/A3/A1/B1/B5/A5,,
{4}6-8-5-2-4[8:4],,,,4-2-5-8-6[8:4],,,,
2-6>5-7-1[8:4],,,,1<4[8:4],,8>2v3<5[8:2],,
{4}8-5-3[8:4],,,,
2v3-1-5[8:4],,,,
1s5[8:4],,,,
7-1[8:4]/8-4[8:4],,,,
{4}3-1-4-7-5[8:4],,,,5-7-4-1-3[8:4],,,,
7-3<4-2-8[8:4],,,,4<1[8:4],,3-6-1-4[8:2],,
{4}8-5-3[8:4],,,,
2v3-1-5[8:4],,,,
1s5[8:4],,,,
{16}1-7[16:1],,,8-4[16:1],,,A7/B7/C/B3/A3/A1/B1/B5/A5,,{4},,
{4}6-8-5-2-4[8:2],,4-2-5-8-6[8:2],,
2-6>5-7-1[8:2],1<4[8:2],2-8-6qq5[8:2],,
{4}8<8[8:2],,1-5[8:1],,3-6-8[8:1]/4-1[8:1],,A7/B7/C/B3/A3/A1/B1/B5/A5,A2/B2/C/B6/A6/A8/B8/B4/A4,
{4}3-1-4-7-5[8:2],,5-7-4-1-3[8:2],,
3-7<6-8-2[8:2],2<5[8:2],6qq1[8:2],,
{8}8<8[16:3],1-5[16:1],,,1-4[8:1],8-6-3[8:1],,,{16}A4,E4,E3,A2,E3,B3,B4,E5,A5,E6,B6,B7,E8,A8,E8,E7,
A6/A5,E6,E7,A7,E7,B6,B5,E5,A4,E4,B3,B2,E2,A1,E2,E3,
A3,A1/A2/E1/B2,,E8/C/A7/B6,,E7/E6/A5,,A1/D1/A8,,A7/D7/A6/D6/D8,,A5/D5/A4,,A8/E1,,E2/A2,
,E3/B3,,B4/E5,,A5,,B8/B1/B5/B4,,B7/B6/B2/B3,,E1/E2/E3/E4/E5/E6/E7/E8,,B1/C/B5/A5/A1,{8}A8/E8/E7/A6/E6/B5/B4/E4/A3/A4/B3/B2/E2/A1,
{16}A8,A2,B7/E8,B3/E3,B6/E7,B4/E4,{8}A5/A6/A4/E6/E5,{16}A1,A7,B2/E2,B6/E7,B3/E3,B5/E6,{8}A4/A3/A5/E4/E5,
A7/E8/E1/A1/C/B2/A2/B6,E7/E6/A5,A1/A8/D1/D8/A7/D7/A6/D6/A5/D5/A4,E8/A8/D1/A1/E2/C/E6/A5/D5/A4/E4/B7/B2/B6/B3,{64},,,,,,,,A1,D2,A2,D3,A3,D4,A4,D5,A5,D6,A6,D7,A7,D8,A8,D1,{8}A1,
{32}A1/B1,,,B5/A5,,,{16}C,,A1/B1/C/B5/A5,,,{8}A1/E1,{16}E8/A7,E7/E6,,B5/C/B2/E3/A3/D4/A4/A5,,,A7/B7/C/B3/A3,
,,A1/B1/C/B5/A5,,,{8}A8/B8/C/B4/A4,{16}A2/B2/C/B6/A6,,,B1/B5/A8/B8/C/B4/A4/A1/B2/B6/A6/A7/B7/B3/A3/A2/A5,{4},
{4}6-8-5-2-4[8:4],,4-2-5-8-6[8:3],,
2-6>5-7-1[8:4],,1<4[8:2],2qq5[8:2],
{4}5-8[8:2],,4v1[8:2],,8<8[8:4],,
3-1-4-7-5[8:2],,
{1}7-3-5-1-7-5[8:12],,{1}8-4-6-2-8-6b[8:12],,
{1}7>3v5[8:12],,6<2v4[8:12],,{1}3<7v1[8:12],,7<3v1b[8:12],,
{16}1b-7b[16:3],,,7b-5b[16:3],,,5b-3b[16:3],,,3b-7b[16:3],,,1b-5b[16:3],,1b-7-5-3-7-1-5b[8:6],,{1}1b,
{16}A6/D4/E1/A4/D5/A5/D2/A3/A1/B7/E6/E7/A8/A7/B8/C/A2,,}A6/D4/E1/A4/D5/A5/D2/A3/A1/B7/E6/E7/A8/A7/B8/C/A2,,,,,A1/E6/B6/A7/E8/B3/D6/E7/E5/D4/A4/A3/D3/A2/B1/E2/D7/C,
{4},,
{4}6-8-5-2-4[8:4],,4-2-5-8-6[8:3],,
2-6>5-7-1[8:4],1<4[8:2],,,
{4}8x-5[16:3]/1xpp4[16:3],,5x-8[16:3]/4x-1[16:3],,
{4}2-6[8:1],8-4[8:1]/2,2-6[8:1]/8,7/2,
{4}3-1-4-7-5[8:4],,5-7-4-1-3[8:3],,
7-3<4-2-8[8:4],8>5[8:2],,,
{8}8x-5[8:1],7>2-6-3[8:2],,,1v7-1[8:3],1,5v3-5-7[8:3],5,,,,,,{16},,,
7b-3-5-1-7-5[8:12]/3b,,,5b-1-7-3-5-7b[8:12]/1b,
