&title=唇*シンメトリー
&artist=佐々木美来 /「メルキス」主題歌より
&first=0.74
&wholebpm=160
&demo_seek=59.8
&demo_len=11.8
&des_5=アネット
&des_6=アネキス
&lv_5=13
&lv_6=13+
&seek=0.72
&mv_seek=0.72
&inote_5=(160)
||I
{8}
1,1,6,6,
4,5,4p8[2:1]*q8[2:1],4,
,,,,
,7,7,6h[1:1],
,5,4,2,
1,8,7,5^2[4:1],
,2<6[4:1],,6>2[4:1],
,2,8pp2[3:1]*qq6[3:1],,
,,,,
8,4,6,2v5[8:1],
,2/7qq3[2:1],7,7,
,2p2[2:1],2,2,
,,6-1[4:1],6,
,,,3v1[8:1],
,3,5w1[4:1],,
5b,,,,
7,6,5,4,
,2,,8pp4[8:5]*qq4[8:5],,
,,,,
,,,
3-8[8:1],,3,7-3[8:1],
,,,8v3[8:1],
,8,5pp1[8:3]*qq1[8:3],,
5,,,,
8,7,26,2,
3,48,37,37,
1qq5[2:1]/8pp4[2:1],18,,,
,,,,
||A
1b,,7-5[8:1],,
1-3[8:1],,5,4z8[2:1],
4,,,,
,1,2,3,
4qq3[4:1],4,5,6,
6,7pp6[8:3]*p4[8:3],7,,
,,,,
3h[8:3],,6qq1[2:1],6,
,,,2,
2,3,3,4,
4v5[4:1],,4,7z3[8:3],
,1,1,2,
2v7[8:1],,2,5p8[8:1],
,,,2-4[8:1],
7,2p7[2:1]*qq6[2:1],,,
,,,,
,,5,5,
3,2,7,6,
1qq5[3:1],,1b,,
,8,8-2[8:1],,
8^6[8:1],,8-4[8:1],,
8,5q8[2:1]*qq1[2:1],,,
,,,,
3,,7,7>4[8:7],
,,,6,
6,7,8,1V35[4:1]*p5[4:1],
1,,,,
,36,36,,
1-5[8:1]/8-4[8:1],,1-3[8:1]/8-6[8:1],,
1p5[8:1]/8q4[8:1],,1q3[8:3]/8p6[8:3],,
,,,,
,45,36,,
||B
3bq5[4:1],,,8,
8-4[8:1],,8,,
3q5[4:1],,,8,
8-4[8:1],,8,,
3p1[4:1],,,8,
8-4[8:1],,8,,
8q2[4:1],,,5,
5-1[8:1],,5,,
27,,36,36,
,4-8[8:1]/5,,4b>4[3:1]/5,
,,,,
3b,,8,7,
6b/5b,47,,3b/4b,
25,,1b/2b,38,
,8b/7b,16,,
3h[8:3],,1,8,
{16}
7,6,5,,
1b,,1,2,
3,,8b,,
84,7,6,,
2b,,52,1,
8,,4b,,
8V24[8:1]/4V68[8:1],,,,
8b/4b,,,,
||S
{8}
1,5,8,4,
37,26,15,8q4[8:1]/4q8[8:1],
,8bpp5[2:1],,,
,3,3,2,
2V86[4:1],,6V42[4:1],,
,,,5V37[3:1]*V71[3:1],
,5b,,,
,84,3-8[8:1]/7-4[8:1],,
3b<8[4:1]/7b,,8^2[4:1],,
2^5[4:1],,5-1[4:1],,
1V35[4:1],,5V71[4:1],,
,,5b,,
{16}
2,6,3,7,
4,8,5^2[8:1]/1^6[8:1],,
,,1b-5[8:1],,
,,1b/5bpp5[8:5]*qq5[8:5],,
{4}
,,,,
{8}
8,4,1,5,
62,73,84,1p5[8:1]/5p1[8:1],
,1bqq4[2:1]*qq4[2:1],,,
,6,6,7h[8:7],
,1,2,3,4,
5,6,8-2[8:1],,
8/7p3[8:1],,7/3p7[4:1],,
3/5b,,,8,
8,1b/8,27,2/4,
3,5/7b,6bp4[8:6],,
3,2,1,,
8,8pp3[2:1]*qq5[2:1],8,,
,,,,
4b,,3-1[8:1],,
3,4z8[2:1],,45,
,,,7^5[8:1],
,7,8V64[8:1]*V24[8:1],,
8pp4[1:1]*qq4[1:1],,,,
,,,,
,,,2p6[8:1],
,2,5V37[4:1],,
5,8,2^5[8:1],,
2,1s5[4:1],,1,
,7,,8-3[8:1],
7,8b,6q2[8:1],5,
6b,3-5[8:1],1,3,
8-4[8:1],26,8,3,
15,26,3z7[1:3]/7s3[1:3],,
{1},,,,,E,
&inote_6=(160)
{8}
1q5[8:1],5p1[8:1],1p5[8:1],,,,7,7p3[4:1]*q3[4:1],,,,,,
2-5[8:1],5V38[8:1],2,,7,6,5V37[8:1],7-1[8:1],5,,
2V41[4:1],,1V75[4:1],,5-1[4:1],,1V35[4:1]*qq8[4:1],,,,,,,
6-2[8:1],8,6,8^5[8:1],,4,3,2pp2[4:1],,6,7,8bp8[4:1]*q8[4:1],,,,,,
37,,4-7[8:1],,4,6pp1[8:3],,61,,,,2^5[8:1],8,2,
8-5[8:1]*-3[8:1],,8V61[8:3]*V27[8:3],,,,,,,8,17,26,,
2^5[8:1],,2,7V16[4:1],,75,4,3qq2[8:1],,5,6V85[4:1],,5pp6[8:1],,,,
2,3,46,47,48,84,83,82,81,1qq5[8:3]/8pp4[8:3],,18,,,,,27,,
1h[8:2],,4-7[8:1],,8,1,2qq5[8:3],,6,,,6,7,8,5-2[8:1],8-6[8:1],5,8,
1-3[8:1],5v8[8:1],1,5,4-2[8:1]*-6[8:1],,4,,1q3[8:3],,6,6h[8:3],,,,
7,4,6,3,5,2h[8:4],,4,4<8[8:1],,2,3,4,5^2[8:1],,
5-8[8:1],8-3[8:1],,,,2,1,8^3[8:1],,8b/6,,
{16}7,6,5,1,2,3,7b,,,,{8}1,2,37,3,45,5,5/8qq3[8:3],,85,,,
4,5,6,7-3[8:1]/4-1[8:1],,74,,2,3,45,4,4/6-1[8:1],,64,,
3-8[8:1],2,35,,5-8[4:1],,8-3[4:1],,3V51[2:1],,5,,1V75[4:1],,
5qq4[4:1],,3,,,,1^4[8:1]/8^5[8:1],,1-5[8:1]/8-4[8:1],,
1-3[8:1]/8-6[8:1],,1-5[8:1]/8-4[8:1],,1w5[8:3]/8w4[8:3],,,,,,,,
3bpp3[4:1],,,8,8-4[8:1],,8,,{16}7,8,1,2,8,1,2,3,4-8[8:1]/2,,,,41,,,,
{8}
3bq5[4:1],,,8,8-4[8:1],,8,,{16}5,6,7,8,6,7,8,1,2-7[8:1]/4,,,,12,,,,
{8}
5-1[8:1]/6,,5,7,,7pp5[8:3],,3h[8:4],,,,,3bpp4[8:1]*V14[8:1],,,,
8b/7b,16,25,1b/8b,27,36,1b/2b,83,74,1b/8b,27,36,4-1[8:1]/5-8[8:1],,4b/5b,,
{16}
87,16,25,34,,,18,27,36,45,,,12,83,74,65,,,18,27,36,45,,,
{32}1w5[8:1],2,3,4,5,6,7,8,{8}1b,,
1q5[8:1],5p1[8:1],1p5[8:1],8,8,7p3[8:1],3p7[8:1],7p4[8:3],,1h[8:3],,,,
2,37,4,
8p4[8:1],4q8[8:1],8q4[8:1],1,1,2q6[8:1],6q2[8:1],2q5[8:3],,8h[8:3],,,,
8,8-4[8:1],,8bV26[4:1],,6V48[4:1],,8V26[4:1],,6V48[4:1],,
8V26[4:1],,6V48[4:1],,8V26[4:1],,7,,{16}7,4,6,3,5,2,
{8}4^7[8:1]/8^3[8:1],,4/8b-4[8:1],,8/4bpp4[8:3]*qq4[8:3],,,,,,,26,,
1q5[8:1],5p1[8:1],1p5[8:1],,8^5[8:1],8^3[8:1],8,8qq4[8:3],,,,,,
1,2,3h[8:3],,8-4[8:1],8,3-7[8:1],3,5-1[8:1],5,2-6[8:1],,2/8-3[8:1],,8/1-5[8:1],,1/8-4[8:1],,8,2b,,15,26,37,4>8[8:1]/8<4[8:1],
48,4bq5[8:5]/8bq1[8:5],,,,,,,,,
2^5[8:1],8,2,8p5[8:3],,4,3,2^5[8:1],,7,7p4[8:3],,74,,,,
1,2,37,4w8[8:1]/8,,4pp8[8:3]*qq8[8:3],,,,,,,{16}1,2,3,4,{8}5/7b,,
7^4[8:1],,1,1qq4[8:3],,4,5,5,,5,5p1[8:1]*q1[8:1],,5b,,37,,
{24}
1b,2,3,4,5,6,7,8,1,
2/6b,3,4,5,6,7,8,1,2,
3/7b,4,5,6,7,8,1,2,3,
4/8b,5,6,7,8,1,2,3,4,5/8,7,6,5/1,2,3,48,7,6,
{1}5p5[8:15]/1bp1[8:15],,,E,
