&title=Dark Night Fairy:finis
&artist=葉月ゆら
&first=0.01
&des=おにねこ
&lv_5=13+
&inote_5=(116)
{1},
{16}
4h[8:2]/5,,,,6h[16:3],,,5p7[8:2],,,,,,,,,
6h[8:2],,,,3h[16:3],,,4q1[16:4],,,,,,,,,
2h[8:2],,,,7h[16:3],,,5q4[16:5],,,,,,,,,
6h[8:3],,,,,,3,5h[48:11],,,{24}2,3,4,{16}5,,,,
8h[8:2]/4,,,,3>8[16:2],,,8,3,,7,,6>3[16:2],,5,,
,,2,,2<7[16:2],,,7,2,,6,,5>2[16:2],,4,,
,,1,,1<6[16:2],,,6,1,,5,,4q7[16:5],,3,,
2,,,,,,1,8,2h[8:2],,,,6<1[16:2],2>5[16:2],8,4,,,,,,,,,
5/6h[16:3],,,1h[16:3],,,4<8[16:3],,,,3,,2q6[8:1],,,,
6,,,8h[16:3],,,5>1[16:3],,,,6,,7p3[16:3],,,,
3<6[16:3],,,6p2[16:3],,,2<7[16:3],,,7p3[16:3],,,3,,,,
1h[16:3],,,6h[16:2],,4,5,,4/2<7[8:1],,1,,5,5,,,
6h[8:1],,4,5h[16:2],,3,4<7[16:2],,,,3-8[8:1],,2,,,,
4,,5,4h[16:2],,6,5>2[16:2],,,,6-1[8:1],,7,,,,
5b,,4<7[16:2],6,,2,4>1[16:2],,,,8-4[8:1],,7,,1/8,,,,
53,,6,6,{24}3,4,3,2/5,,,6>3[8:1],5,6,{16}7/4,,,,
1b,,6,,34,,2,2h[16:5],,,4,,1-5[16:2],,5,,8,,6,6h[16:6],,7,,5,,8-4[8:1],8,,4,,,,
1,,3,,65,,7,7h[16:5],,,5,,8qq2[16:5],,4,,18,,,,
3,,3,4,2,2,4,3,6,6,5,7,
1,,65,,34,,2,2h[16:5],,,3,,1V38[16:3],,4,,8,,6,6h[16:4],,7>2[8:1],,
5,,,,,3>6[16:3],4,2,,5pp7[8:1]*qq3[8:1],,,,,,,,1,,
34,,45,,6,5,8h[16:3],,,5h[16:3],,,2<3[16:4],,,,3,,2h[8:2],,,,
4,2,1,3,5,2,8,3h[8:1],,7,5,6,8,7,4,6,1b,,2,3/4b,,7,6/5b,,{24}1,8,2,{16}1,4,6q3[32:5],,3,,
6b,,4,4v5[32:4],,5,,7p2[32:7],,,8,,1,,,,4V25[16:3],,5,5V74[16:3],,8,8h[8:3],,,,,,
3>7[32:5],,7,,3,,4,4pp5[32:6],,3,,1,,,2,,8/3-8[8:1],,47,,3b,,6>3[8:1],6b,,3,3b,,
1,1,4,3,7,7,5,6,
1b,,6,6qq4[32:5],,4,,3pp6[32:10],,,2,,1,,,,1,,3,24,,6,7h[8:2]/5p4[32:9],,,,,,
6,,7,,8p1[32:6],,3,3<6[8:1],,2,,3,,,8h[16:2],,2<7[32:3],,3,,2b/6b<3[32:5],,,6b,,,4,,
{24}4,5,3,{16}4,2,6pp1[8:3],,5,5,6,,4,,3,3,,2h[16:3],,,8h[16:2],,5h[8:1],,
6,5,
7,7,8,6,5,7,1,6,
4z8[16:3],7,2,5,4,,,,
6b,5,7b,5,8b,2b,4,3b<6[16:2],,,,,7p2[16:3],,,,
{8}
5h[8:4],,,,6h[8:2],,3h[8:2],,4h[8:2],,8h[8:2],,7h[8:2],,1<6[8:1],,
1b/4h[8:4],,,,3h[8:2],,6h[8:2],,8h[8:2],,1h[8:2],,3<6[8:1],,,,
{16}3h[16:1],4h[16:1],5h[16:1],6h[16:1],3-8[8:1],,4,,
5,,6h[16:4],,4,,2h[8:2],,4,,7h[8:1],,3qq8[32:11],3,8,,7,,6,,5,,,,
{16}3h[16:1],4h[16:1],5h[16:1],6h[16:1],3-8[8:1],,4,,
5,,6h[16:4],,4<7[8:1],,2h[8:1],,4b>1[8:1],,,,4b<7[32:4],,,,3/4b,,
{24}1,2,3,{16}5,5,4,,
{16}7,5,6,3,4h[8:1],,1h[8:1],,8<5[8:1],,{24}2,3,4,8,,,3,,,
{16}2,4,3,6,5h[8:1],,8qq8[16:3],,1pp1[16:3],,,,,,,,
{16}7,5,6,3,4h[8:1],,1h[8:1],,8h[8:1],,{24}5,7,5,7,,,46,,,
{16}3,4,3,4,5,6,5,6,4qq5[8:2],,{24}7,6,5,4,,,,,,
{16}7,7,5,6,3h[8:1],,4,4,1>4[8:1],,{24}7,6,5,1,,,6,,,
{16}2,2,4,3,8p4[8:1],,1q5[16:2],,8>7[16:4],,,,,,,,
{16}2,,{24}2,3,4,{16}5/6,,7h[8:1],,1h[8:1],,3h[8:1],,5p2[16:5],,7h[8:1],,5,,,,,
,5,5,1V38[32:7],,,3,,,5,,
7,,65,,45,,34,,23,,12,,8V25[16:3],1,7,7,,,7b,,7b>2[8:1],,7b,,7b,,{24}3,4,5,{16}6h[8:2],,,,
{4}8<5[8:2],,1v4[8:2],,8v5[8:2],,1>4[8:2],,8<5[8:2],,3q5[32:7],,
{16}8,,2,34,,7,65,,{24}8,1,7,{16}8,5,3-6[32:4],4,2,,3b/6b,,
7,7-4[32:4],,4v1[8:1],,1-6[32:4],,,3,,2,,4,,45,,2,31,,7,6h[8:2]/8q1[32:9],,,,,,
7,,6,,5pp4[32:8],,3,3qq4[32:8],,2,,3,,,6,,7v8[32:4],,8,,7b/3bv2[32:4],,,3b,,,5,,
{24}5,4,6,{16}5,7,1pp1[8:2],,8,8,1,,7,,6,6,,7/5qq5[32:7]*pp5[32:7],,,,,,,
,,
2,2,1,3,4,2,8,3,
6pp3[16:4],1,7,4,6,,,,
2b,2,4b,3,5b,1b,7,3b>6[16:3],,,,,4q1[32:7],,,,
1b,,3,,5h[8:1],,6,4h[8:1],,1,3h[8:1],,4>2[32:3],,5<8[8:1],,
46,,5,,2h[8:1],,1,3h[8:1],,6,4h[8:1],,{24}5>2[32:4],6,7,8,,,
{16}
8,,6,,3/4h[8:1],,2,5h[8:1],,8,6h[8:1],,5<7[32:3],,3h[8:1],,5b,,
3,1b,,6,8b,,,3,4,4,5,5,6,5,
74,,3,,12,,6,75,,4,53,,1/2>4[32:3],,4p8[8:1]/5,,
2,,7,,6,,3,24,,5,46,,{24}3<6[8:1],2,1,8,,,
{16}8,,2,,54,,6,75,,4,53,3,
6,6,5,5,4b,,3,3/1b,,6,6/8b,,
{24}1-5[32:12],2,3,4,5,6,7,8,
,,,,,,,1bpp5[4:10],,
