&title= OMAKENO Stroke
&artist=t+pazolite
&first=0
&des=B(@A@)D
&clock_count=4
&lv_6=14
&inote_6=(240){1},,
{4}1bs5b[8:1]/8bz4b[8:1],1b>8[4:5]/8b<1[4:5],,,,,,,
{8}3/5,3,4/6,6,1-5[8:1],,,,
6/4,6,5/3,3,8xv5[8:1],,8x,,
3/4,2,5/6,7,1-5[8:1]/8-4[8:1],,,,
E4,E8,E2,E6,Chf[4:1],,,,
5/6,7,5/6,4,5/6<1[8:1],,2,,
3/4,5,3/4,2,3v8[8:1]/4,,{16}B3,C,B8,,
{8}1x/6x,2,3x/8x,7,2x/6x,3,4x/7x,6,
{4}5x>1[4:1]/3x,1<5b[4:1]*p4b[4:1],,,
{8}2/7,,3V51[4:1],5,3,6,7-3[8:1],,
7/8,,2h[8:3],{24}B2,B3,B4,,,,B8,B7,B6,{8}1x-5[8:1],,
6-8[8:1],,4-2[8:1],4,5-7[8:1],5,3-1[8:1],3,
{4}8x-4<7[8:3],8x,1b,1b,
{8}2-6[8:1],,2,8-4[8:1],,8,1-5[8:1],,
1,7-4[8:1],,7b,3,3-8[8:1]*v6[8:1],,3x,
,1x,1x,1x,1x/5x,1x/5x,1x/5x,1xw5[8:5]/5x,
{1},
{4}2>6[4:5],,B4/E5,,,,C,,
{4}7<3[4:5],,B5/E5,,,,E1,,
{8}2,2,2V84[8:3],2h[8:3],,,Cf,,
{4}3-6[8:3],,E2,E1,
{8}7,7,7-1v4[8:3],7h[8:3],,,Cf,,
{4}5<8[8:3],,A1,A2,
{8}3,3,3<6v1[8:3],3h[8:3],,,Cf,,
{4}2<7[8:3],,E4,E5,
{8}6,6,6>3-7[8:3],6h[8:3],,,Cf,,
{4}8<5[8:3],,A1,A2,
{8}3/4,3/4,3>8v5[8:3]/4,3h[8:3]/4,,,Cf,,
{4}2>5[8:3],,1,8,
7-5[8:1],4,2-4[8:1],5,
6<1[4:1],1>4[4:1],4-7[8:1]*-8[8:1],Cf,
{8}1x-5[8:1],,1/6,7-4[8:1],,3/7,2-6[8:1],,
{4}8-4[8:1],1-5[8:1],7-3[8:1],2,
{8}4/8-4[8:1],,3/8,2-5[8:1],,2/6,7-3[8:1],,
{4}1-5[8:1],8-4[8:1],2-6[8:1],7b,
{8}5/1-5[8:1],,1/6,7-4[8:1],,3/7,2-6[8:1],,
{4}8-4[8:1],1-5[8:1],7-3[8:1],2,
{8}4/8-4[8:1],,3/8,2-5[8:1],,2/6,7,,
{1}4bqq8[2:1]/8bqq4[2:1],
{8}5/1-5[8:1],,1/6,7-4[8:1],,3/7,2-6[8:1],,
8-4[8:1],8,1-5[8:1],1,7-3[8:1],7,2,,
4/8-4[8:1],,3/8,2-5[8:1],,2/6,7-3[8:1],,
1-5[8:1],1,8-4[8:1],8,2-6[8:1],2,7,,
3-5[8:1],,3/6,7-4[8:1],,7/3,2-6[8:1],,
2/7,8-4[8:1],,8/2,1w5[8:1],,1,,
3/7,3/7,2/6,2/6,1/5,1/5,8/4,8pp3[8:5]/4pp7[8:5],
||7/3,8,1,2,3,2,1,8,{32}1,2,3,4,5,6,7,8,1,2,3,4,5,6,7,8,1,
{1},
{4}2h[2:1]/6h[2:3],,,B2,
A3/B3,,A1/D2/E2,,
3h[1:1]/7,,,B5/E6,
A7/E8/B7,,E2,E3,
E4/5h[2:3],,,B1,
A1,,A2,,
A3/B3/Ch[1:1],,,,
,,,1,
{8}1<5[8:3],,5,5p4-2-8-6-4[8:9],,,7h[1:1],,
{1},
{8}8>4[8:3],,4,4q5<1[8:7],,,2h[2:1],,
,,,,3,3h[8:3],,,
1h[8:3],,,5h[8:3],,,7h[4:3],,
3,,5,,4,4>5[8:11],,Chf[8:13],
{1},
{4},,,5pp8[1:1],
5/4b,4,4,4,
4,4,4,4qq1[1:1],
5b/4,5,5,5,
5,5,5,5q8[4:3],
5/4b,4,4b,4p1[4:3],
5b/4,5,5b,5-7[8:1],
5/4b,4-2[8:1],4/5b,5,
8b/7b,2b/1b,5b-8[8:1]/4b-1[8:1],5b/4b,
{8}2-4[8:1],,1-5[8:1],1,3-7[8:1],3,8-4[8:1],8,
2-6[8:1],2,7-1[8:1],7,3-5[8:1],3,6,6,
6h[4:1],,5-2[8:1]*-3[8:1],5,5b-7[8:1]*-8[8:1],,5b,,
{4}1-5[8:1],5-1[8:1],1w5[8:1],,
{8}3-6[8:1],3,7-2[8:1],7,4-1[8:1],4,8-5[8:1],8,
2-5[8:1],2,7h[4:1],,1-5[8:1],1,8-4[8:1],8,
2,2>4[8:1],5,2<8[8:1],6,2-6[8:1],7>4[4:1],2,
{4}7,,5bw1b[8:1],5b,
{8}7-5[8:1],,8-4[8:1],8,6-2[8:1],6,1-5[8:1],1,
7-3[8:1],7,2-8[8:1],2,6-4[8:1],6,3,3,
3h[4:1],,4-7[8:1]*-6[8:1],4,4b-2[8:1]*-1[8:1],,4b,,
{4}8-4[8:1],4-8[8:1],8w4[8:1],,
{8}7-2[8:1],7,3-6[8:1],3,8-5[8:1],8,4-1[8:1],4,
6-1[8:1],6,3h[4:1],,5-1[8:1],5,2,2,
3,3,2/4,2/4,E3/5,E4/6,E5/7,E6/8,
{4}1-6[8:1],1-3[8:1]*-4[8:1],1w5b[8:1],Cf,
2-5[8:1],2/7-3[8:1],7/4-8[8:1],4/6-3[8:1],
6/1-5[8:1],1/8-6[8:1],8/3-7[8:1],3/5-1[8:1],
5/4-7[8:1],4/8-3[8:1],8/2-6[8:1],2/7-4[8:1],
7/3-8[8:1],3/6h[2:1],1b,1b,
7-3[8:1],7/2-5[8:1],2/6-1[8:1],6/3-6[8:1],
3/8-4[8:1],1>8[4:1]*q1b[4:1],1,,
{8}3/8x,2,2,1/6,7,7,3/6,3/6,
{4}5/4qq5[4:1],4/5<4[8:3],8,,
7-4[8:1],7/2-6[8:1],2/5-1[8:1],5/3-6[8:1],
3/8-4[8:1],8/1-3[8:1],1/6-2[8:1],6/4-8[8:1],
4/5-2[8:1],5/1-6[8:1],1/7-3[8:1],7/2-5[8:1],
2/6-1[8:1],6/3h[2:1],8b,8b,
{8}2-5[8:1],2,7-4[8:1],7,1-5[8:1],1,8-4[8:1],8,
2-6[8:1],2,7-3[8:1],7,1-4[8:1]*-6[8:1],,1,,
{16}2,7,2,7,2,7,2,7,1,8,1,8,1-5b[8:1],8,1,8,
{1}1b/Cf,
{4}3h[2:1]/7h[2:3],,,E4,
B2/E3,,A1/B1/E1,,
2h[1:1]/6,,,B5/E5,
A7/E7/B7,,D2,D3,
D4/5h[2:3],,,E1,
D1,,E2,,
{1}E7/B6/B7/E3/B3/B2/Ch[1:2],,,,
E
