&title=Jump Up,Super Star!
&artist=Kate Davis
&first=0.05
&des=just JUMP
&des_5=just JUMP
&lv_5=13+
&inote_5=(204){4},,{16}2,3,4,5,6,7,8,1,
{4}2-4[8:1],8,7-5[8:1],1,
3-8[8:1],4,6-1[8:1],5,
8/2-4[8:1],5,1/7-5[8:1],4,
4/3-8[8:1],5,5/6-1[8:1],4,
{6}2-4[8:1],{12}2,1,{6},7-5[8:1],{12}7,8,{6},1-5[8:1],
{12}1,8,{6},2/7,{12}8,1,,B2/B7/A7/A2/Cf,
{8},4bh[8:3],5,6,7bh[8:3],8,1,2bh[8:3],
3,4,5,6,7,A3/E4,D8/E8,B2/E3,
E6/A5,E2/A1,B8/B7,C,{2},
{6}8,{12}8w4[12:1],1,{24},{8}Cf/E8/E2/B1/B8/B7/B2,{2},
{12}2-4[8:1],,2,8,,1,1-5[8:1],,,3,,,
{6}2/6,{12}3,4-8[8:1],{6},{4}1-5[8:1],7,
{12}6,4,5,3,,7/2<7[12:1],{6},{12}E2,E8,{6},7/4,
{12}6,5-1[8:1],{6},{4}8-4[8:1],2-7[8:1],
6-3[8:1],1h[12:5],{2}8h[6:1],
{8}2/1,B3f/A3/E4/A4/B2,{4},{8}7/8,B6f/A6/E6/A5/B7,{4},{8}3/4,
B2f/A2/E2/A1/B3,{4},{8}6/5,B7f/A7/E8/A8/B6,{4},{6}1,
{12}1w5[12:1]b,8,{24},{8}Cf/E2/E8/B8/B1/B2/B7,{2},{6}6/3,
{12}6,5,,5,{6}4,{12}4,3,{6},{4}7-5[8:1],
1,8-4[8:1],6,
7-1[8:1],5,6-2[8:1],8,
7-5[12:1],8-4[12:1],1-5[12:1],2-4[12:1],
1-5[12:1],8-4[12:1],7-5[12:1],2,
{6}1-5[8:1],{12}6,6,{6},{4}8-4[8:1],3,
{6}2/7,{12}8,1,,2-4[12:1]/7-5[12:1],{2},{6}2/5,
{12}3,4,,5/7,{6},{12}6,5,,4-1[6:1]/5-8[6:1],
{4},{48}E5f/B4/B5,C,{24}E1,{12},,,,,{4}2/7,
1>4[4:1],A1/4<7[4:1],{8}7>2[4:1],D6,{4}2>5[4:1],
A2/5<8[4:1],{8}8V24[4:1],D7,{4}4,7,
{6}2/1,{12}3,4,,3p6[6:1]/4v5[6:1],{4},C,
{6}8/7,{12}6,5,,6/5-1[12:1]b,{6},{3}E1f,
{6}2/4,{12}3,4,,5/7,{6},{12}6,5,,4/3,
{6},{12}2,8,,5/6,{6},{12}7,{48}1,{24},{48}8,{24},{8}1,
{6},3b/Cf,6b/Cf,2b/Cf,7b/Cf,1b/Cf,
{8}Cf/8bz4[4:1],{4},,,{48}D5f,E5,C/E7/E3,B2/B7,B1/B8,E1,
{4},8/1-3<5[4:1],{6}5,{12}6,6,{6},{4}7x/8x-4b[8:1],
{48}8x/E2,E3,{24}A3,{6},{4}2x/1x-5b[8:1],{48}1x/E8,E7,{24}A6,{6},{4}3x/6x,
1/8<7-4[4:1],{6}4,{12}3,3,{6},{4}2x/1x-5b[8:1],
{48}1x/E8,E7,{24}A6,{6},{4}7x/8x-4b[8:1],{48}8x/E2,E3,{24}A3,{6},{4}2x-6[8:1],
2-8[8:1]/7-5[8:1],7-3[8:1],1>4[8:1],
1-5[8:1]/6-8[8:1],6-2[8:1],{6}4,{12}3,3qq5[1:1],{6},
{12}8,,6,6,,4,4-8[8:1],,,,,,
{12}7-3[8:1],,7,{12}8,,1w5[8:1],{6},B1f/E2/E1,{12},3x>8[8:1]/7x<4[8:1],
{2},{6}1-5[8:1],{12}8,8,{6},{4}7/4-8b[8:1],
{48}4x/E7,B6,{24}B5,{6},{4}2/5-1b[8:1],{48}5x/E3,B3,{24}B4,{6},{4}3xv8[8:1]/7xv4[8:1],
{24}B3/B7,C,{6},{4}2xv5[8:1]/6xv1[8:1],{24}B2/B6,C,{6},{24}8bx/4bx,
7/3,6/2,1V36[4:1]/5V72[4:1],{6},,,,,{4}4>1[8:1],
7,5<8[8:1],2,
4-8[8:1],7xp8[4:1],{2}7xpp4[8:3],
{4}3,2/6,{6}3/7,3qq4[3:1]/7qq8[3:1],{12},Cf,
{2},{6}E6/A6,E4/A3,{24},{48}D5f,E5,C/E7/E3,B2/B7,B1/B8,E1,
{4},1/8,{6}2/7,2/7-1b[12:1],{12},{48}7/B2,C,{24}B6,
{4},4/5,{6}3/6,3-7[12:1]/6,{12},{48}3/E6,E5,{24}A4,
{4},8/1,{6}7/2,7/2-8b[12:1],{12},{48}2/B7,C,{24}B3,
{4},5/4,{6}6/3,6-2[12:1]/3,{12},{48}6/E4,E5,{24}A5,
{4},8h[4:1],{6}4-8[8:1],{12}5,5-1[8:1],{6},{4}1>8b[4:1],
{32}E1f/A1/D1/A8,E2,E3,E4,E5,E6,E7,E8,{2}Ch[4:1],
{6}2x/7x-3[4:7],{12}2,3,,3,{6}4,{12}4,5,,5,
{6}6,{12}6,7,,7-3b[12:1],{6}1,B3/C/B7,{3},{36}1bx/8bx,
2bx/7bx,3bx/6bx,4bx/5bx,{9},,{4}4,3,
2/5-1b[8:1],{48}5x/E3,B3,{24}B4,{6},{4}7/4-8b[8:1],{48}4x/E7,B6,{24}B5,{6},{4}6xv1[8:1]/2xv5[8:1],
{24}B6/B2,C,{6},{4}7xv4[8:1]/3xv8[8:1],{24}B7/B3,C,{6},{24}1bx/5bx,
2/6,3/7,8V63[4:1]/4V27[4:1],{6},,,,,2/8,
{12}3,4,,4,2-6[8:1],,2,1<4b[16:3],,,
,,,{24}A3,D3,A2,D2,A1,D1,{4}A8,8x,
{6}7/1,{12}6,5,,5,7-3[8:1],,7,8>5b[16:3],,,
,,,{32}6x,7,8,1,2,3,4,5,{2}6h[4:1],
{6}8/7-5[8:1],{12}1,1,{6},1/2-4[8:1],{12}8,8,{6},{4}7<3[4:1],
3>7[4:1],7<3[4:1],3s7[4:7],
{8}2x,B2f,,4x,{4}B4f,{8}1x,B1f,
,5x,{4}B5f,{2},{8}E1,
E8,B1,B7,B2,B6,E3,E6,
{4}4x-8[8:1],6/4>6[8:3],{2},{4}4x-8[8:1],
2/4<2[8:3],{2},{4}7-3[8:1],
1/7>5[4:1],{2},{4}2-6[8:1],
8/2<4[4:1],{2},{4}5x-1[8:1],
3/5<3[8:3],{2},{4}5x-1[8:1],
7/5>7[8:3],{2},{4}2-6[8:1],
8/2<4[4:1],{2},{4}7-3[8:1],
1/7>5[4:1],{2},{4}Cf/B8/B1/B2/B3/E4/B4/B5/B6/B7/E8/E1/E2/E3/E5/E6/E7,
{12}1,,1,7,,7,5,6,4,
{2}5q1[8:1]*p1[8:1],8-3[8:1]*-5[8:1],
{12}2,4,3-8[12:1],5-3[12:1],,3,5,,1w5[12:1],7,,1,
{8},Cf/B1/B8/B5/B4/E5/E1,
{4},{12}2h[6:1]/7h[4:1],{3},{12}8,
{12}1/7,,1,8,,8,2,,2,4,3,5,
{2}4p8[8:1]*q8[8:1],{4}1-6[8:1]*-4[8:1],1w5[12:1],
{2}B1f/E2/E1,{6}8,8w4[12:1]b,{12},B8f/E1/E8/8b>7[12:7],
{1},{4}2-6[8:1],
{8}1,7-3[8:1],,8,{4}1-5[8:1],
{8}6,8-4[8:1],,3,{4}2-5[8:1],5w1[8:1],
{12},,,,,3,{6}4/3,5/2,{12},1/8,
{6},{12}6,5/6,,,,,,,,,
{36}4/5,3/6,2/7,1w5[6:13]/8w4[6:13]b,
E
