&title=shattered
&artist=ARForest
&first=0
&des=
&wholebpm=175
&smsg_5=MASTER
&des=KuSA
&first_5=0
&lv_5=12+
&inote_5=(175){1},
{8}
5h[4:3]/4b,,,6,,,4h[4:3],,,3,,,5,,3/6,,
1h[4:3],,,3,,,8h[4:3],,,6,,,1,,4/5,,
6h[4:3],,,5,,,4h[4:3],,,3,,,2,,1/8,,
2h[4:3],,,3,,,4h[4:3],,,5,,,6,,7/2,,
3b,4,2,3,1,2/8,3h[4:1]/7,,
6,5,7,6,8,7/1,6h[4:1]/2,,
3,4,2,3,1,2/8,3/7-3[8:1],,3>5[8:4]/7,,,,4h[8:4],,,,
5,4,6,5,7,7/8,1/8h[4:1],,4,5,3,4,2,1/2,1-3[8:1]/8qq5[8:8],,1b,,,,,,,,
4qq1[8:6],,5,,6,,7,,
8b,,7-4[8:1]/1h[8:1],,7/1,,8/1,,
7-5[8:1],,7-4[8:1]/2h[8:1],,7/2,,
3,2,1/8,,2-5[8:1]/6h[8:1],,6/2,,7/8,,
2-4[8:1],,2-5[8:1]/7h[8:1],,2/7,,
6,7,8/1,,7-4[8:1]/3h[8:1],,3-8[8:1]/7,,3,,
7-5[8:1],,7-4[8:1]/4h[8:1],,7/4V61[8:2],,
1,2,3,,2-5[8:1]/8h[8:1],,8-4[8:1]/2,,8,,
2-4[8:1],,2-5[8:1]/5h[8:1],,2/5V38[8:2],,
8,7,6-1[8:1],,6/5-2[8:1],,5,,4/7,,
3-8[8:1],3,4-7[8:1],4,3,,2/6,,
8-4[8:1]/7,,8/7-3[8:1],,7,,2/4,,
2v5[8:1],2,1v6[8:1],1,2,,7/3,,
6h[8:1],,6h[8:1]/1h[8:1],,6h[8:1],,6h[8:1]/3,3,
3h[8:1],,3h[8:1]/7h[8:1],,3h[8:1],,3h[8:1]/5,5,
{24}1,2,3h[6:1],,,,7,6,5h[6:1],,,,4,3,2,1,8,7,6,5,4,3,2,1,
{8}
8bw4[8:4],,,,,,,,
2b/6b,,1-5[8:1],5V31[8:1],1-7[8:1],,6,,
5,6/4,7-3[8:1]/3-7[8:1],,3/7,,1,2/8,3/7-3[8:1],,
1s5[8:1],1,6-1[8:1]*-8[8:1],,6,,
3,4/2,1>4[8:1]/5,,1-5[8:1],,1/7h[16:1],7h[16:1],7b,,
8-4[8:1],4-8[8:1],8<5[8:1],,3,,
1,2/8,7-3[8:1]/3,,3-7[8:1]/7,,8,8,8b/4b,,
6/2,2/6,3/7,3/7,
4>1[8:1]/8,,
{24}
4/8,7,6,,,,6/1,7/2,8/3,,,,3b,2,1,8,7,6,5w1[8:1],,,,,,
{8}
5b,,8-3[8:1],3>8[8:1],8<5[8:1],,4,,
4,5/3,6v1[8:1]/2-5[8:1],,6/2,,8,7/1,6/2-6[8:1],,
8-5[8:1],8,4-1[8:1]*-8[8:1],,4,,
6,7/5,4/8-4[8:1],,8<5[8:1],,8/3h[16:1],3h[16:1],3b,,
1-5[8:1],5-1[8:1],1>4[8:1],,7,,
8,7/1,6/2q6[8:1],,6q2[8:1]/2,,4,4,4b/8b,,
3/7,3/7,2/6,2/6,1/5<8[8:1],,
{24}
5/1,2,3,,,,3/8,2/7,6/1,,,,6b,7,8,1,2,3,4,5,6,2,3,4,
{8}5b<5[4:14]*>5[4:14],,,,,,,,
{1},,,
{8}
5h[8:4]/4,,3h[8:3],,,,3/5,,
4h[8:2]/6h[8:1],,,,5h[8:2]/3h[8:1],,,,
2h[8:4]/1,,8h[8:3],,,,2/8,,
1s5[8:4],8z4[8:3],,,,,,,
7h[8:2],,6,5/7-4[8:1],,1,,2,2h[8:2],,3,4/2-5[8:1],,5,6,7,
8<5[8:1],,4,3>8[8:1],,4,,5,5<8[8:1],,1,2>5[8:1],,1,8,7,
6-3[8:1],,2,2-7[8:1],,6,,5,5-8[8:1],,1,1-4[8:1],,5,6,7,
1v6[8:1]/8,,8,7v4[8:1],,2,,1,1/8v3[8:1],,1,2v5[8:1],,6,7,8,
8b/1b,,1-5[8:1]/8h[8:1],,1/8,,6/4,,
1>3[8:1],,1-5[8:1]/7h[8:1],,1/7,,
6,6,6/5,,8-4[8:1]/2h[8:1],,8/2,,3/7,,
8<6[8:1],,8-4[8:1]/3h[8:1],,8/3,,
2,2,2/3,,1-5[8:1]/6h[8:1],,1/6-8[8:1],,6,,
1-3[8:1],,1-5[8:1]/5h[8:1],,1/5V31[8:2],,
8,7,6,,8-4[8:1]/3h[8:1],,3-6[8:1]/8,,3,,
8-6[8:1],,8-4[8:1]/4h[8:1],,8/4V68[8:2],,
1,2,3b>8[8:1],,3/4-1[8:1],,4/5-2[8:1],,5,,
7-4[8:1],7,8-5[8:1],8,1<6[8:1],,1,,
2-4[8:1],,2/1-5[8:1],,1/8-6[8:1],,8,,
4-2[8:1],4,6-8[8:1],6,5-1[8:1],5,7,7,
{16}
6,5,6,5,7,4,7,4,8,3,8,3,
{24}1b,8,7,6,,,
{16}
3,4,3,4,2,5,2,5,
{24}1b,2,3,4,,,7b,6,5,4,,,1b,2,3h[6:1],,,,7b,6,5h[6:1],,,,4,3,2,1,8,7,6,5,4,3,2,1,
{16}
8b-4[8:2],,,,,,,,8w4[8:1],,8,,8,,,,
2b<7[8:1]/6b,,,,2/7,,6V84[8:2],,5,,4-8[8:1],,3,,,,
1-5[8:1],,,,1/8-4[8:1],,7,,8/1,,2,,3,,4,,
5<8[8:1],,,,5/1,,2V48[8:2],,1,,8-4[8:1],,7,,6,,
5<7[8:1]*-7[8:1],,,,5>3[8:1]*-3[8:1],,,,5w1[8:1],,,,5,,,,
7<4[8:1]/3,,,,7/4,,3,,7/2,,3/6,,4,4,4b,,
8-4[8:1],,,,1-5[8:1]/8,,2,,1/8,,7,,6,,5,,
4>1[8:1],,,,8/4,,7V51[8:2],,8,,1-6[8:1],,2,,3,,
4-1[8:1]*>1[8:1],,,,4<7[8:1]*-7[8:1],,,,4w8[8:1],,,,4,,,,
2b-6[8:1]/6b,,,,8V62[4:1],,8,,4p8[8:1],,4,,,,,,
7-5[8:1],,2,,7-3[8:1],,4,,3/7,,2,,1,,8,,7/2>5[8:1],,,,7q4[6:1],,7,,2,,2,,1,,1,,
8-6[8:1],,1-3[8:1],,8-4[8:1],,1-5[8:1],,8<5[8:1],,1,,8,,,,
3-7[8:1],,,,5V73[4:1],,5,,1v4[8:1],,1,,,,,,
6<1[8:1],,6,,2>5[8:1],,2,,6,,7,,8,,1,,2h[8:1]/6,,6,,
8,,1/7,,2/6,,3/5,,4>1[8:1],,4,,
{24}4/8b,7,6,,,,1b/6b,2/7,3/8,,,,4b/8b,3/7,2/6,1/5,4,3,2,1,8,7,6/2,5/3,
{8}
4b>4[4:12]*<4[4:12]*>6[4:9]*<2[4:9],,,,
{1},,,8b-4[8:1],
