&title=あしゅらしゅら
&artist=ユリイ・カノン
&first=0.012
&des=Tane
&freemsg=ユリイ・カノン
&wholebpm=
&des_1=Tane
&des_2=Tane
&des_3=Tane
&des_4=Tane
&des_5=Tane
&lv_5=13+
&inote_5=(220){1},,
{12}3h[4:1],,4,
,,,
5h[4:1],,4,
,,,
{12}2h[4:1],,4,
,,,
6h[4:1],,5,
,,,
{12}2h[4:1],,4,
,,,
7h[4:1],,5,
,,,
{12}4,,4,
5,,5,
4,,,
,,,
{12}4,,4,
6,,6,
1,,1-4[8:1],
4,,,
{12}5,,5,
4,,4,
7,,7,
1-4[8:1],,,
{12}4,,5,
4,,4,
6,,6,
2,,2,
{12}4,,4,
5,,5v3[8:1],
7,,,
7,,,
{12}5,,5,
3,,3,
8,,8-5[8:1],
5,,,
{12}4,,4,
5,,5,
2,,2,
8-5[8:1],,,
{12}5,,4,
5,,5,
3,,3,
7,,7,
{12}5,,5,
4,,4v6[8:1],
2,,,
2,,,
{12}45,,7,
8,,5,
4,,7,
8,,5,
{12}4,,7,
8,,8,
7-4[8:1],,,
3,,,
{12}54,,2,
1,,4,
5,,2,
1,,4,
{12}5,,2,
1,,1,
2-5[8:1],,,
6,,,
{12}56,,,
2,,6,
5,,,
25,,,
{12}56,,6,
2,,,
34,,,
2,,,
{12}34,,3,
4,,,
2-5[8:1],,,
6,,,
{12}56,,7,
8,,1,
8-5[8:1],,,
2,,,
{12}43,,,
7,,3,
4,,,
74,,,
{12}43,,3,
7,,,
65,,,
7,,,
{12}65,,6,
5,,5,
7-4[8:1],,,
3,,,
{12}43,,2,
1,,8,
1-4[8:1],,,
7,,,
{12}1,,,
34,,3,
1,,,
34,,,
{12}1,,4,
3,,,
8,,,
34,,,
{12}23,,2,
3-6[8:1],,,
1-4[8:1],,,
5,,,
{12}56,,4,
5,,6,
5-1[8:1],,,
7,,,
{12}8,,,
65,,6,
8,,,
65,,,
{12}8,,5,
6,,,
1,,,
65,,,
{12}76,,7,
6-3[8:1],,,
8-5[8:1],,,
4,,,
{12}1b/5,,2b/6,
,3b/7,,
1/5b,,2/6b,
,3/7b,,
{12}8,,,
1,,,
2^4[8:1],,,
8,,,
{12}7,,7,
1,,1,
{8}7,8,
6,1,
{12},,7,
7^5[8:1],,,
4,,,
{8}3,2,
{12}7,5,6,
2,4,3,
6,,5,
6,,6,
{12},,2^8[8:1],
2,,,
7,,,
6,,,
{12}5,,3,
4,,6,
{8}5,,
4,4,
{12}3/7b,,2/6b,
,1/5b,,
3b/7,,2b/6,
,1b/5,,
{12}4/8-4[8:1],,,
,,,
7,,7,
8,,1,
{12}8-4[8:1],,,
{8}8,,
{12}8-4[8:1],,,
8,,,
{12}8-5[8:1],,,
{4}8-3[8:1],8,
{12}7,,,
{12}2-5[8:1],,,
{8}6-1[8:1],,
2,,
{12}3,,,
{12}24,,5,
4,,3,
4-7[8:1],,,
3,,,
{12}8-4[8:1],,,
78,,,
8-4[8:1],,1,
8,,,
{12}1-7[8:1],,,
{4}5-3[8:1],1-5[8:1],
{12}6,,,
{12}6-1[8:1],,,
{8}6,5-1[8:1],
,,
{12}8,,,
{12}78,,7,
5,,5,
4,,4,
3,,,
{12}1-5[8:1],,,
{8}1,,
{12}1-5[8:1],,,
1,,,
{12}1-4[8:1],,,
{4}1-6[8:1],1,
{12}2,,,
{12}7-4[8:1],,,
{8}3-8[8:1],,
7,,
{12}6,,,
{12}75,,4,
5,,6,
5-2[8:1],,,
6,,,
{12}1-5[8:1],,,
21,,,
1-5[8:1],,8,
1,,,
{12}8-2[8:1],,,
{4}4-6[8:1],8-4[8:1],
{12}3,,,
{12}3-8[8:1],,,
{8}3,4-8[8:1],
,,
{12}1,,,
{12}21,,2,
4,,4,
5,,,
45,,,
{12}45,,7,
8,,4,
3,,7,
8,,4,
{12}3,,7,
8,,8,
7-4[8:1],,,
78,,,
{12}34,,2,
1,,5,
6,,2,
1,,5,
{12}6,,2,
1,,1,
2-5[8:1],,,
21,,,
{12}56,,7,
8,,4,
3,,8,
1,,6,
{12}5,,7,
8,,8,
7-4[8:1],,,
78,,,
{12}43,,2,
1,,5,
6,,1,
8,,3,
{12}4,,2,
1,,1,
1b/2b,,,
1b/2b,,,
{4},,4h[4:3],3,
,3,4b/5b,3b/6b,2b/7b^4[8:1],,
{12}2-5[8:1],,,
6-1[8:1],,,
2,,,
3h[4:1],,,
{12}4,,5,
4,,3,
4-7[8:1],,,
3,,,
{12}8-4[8:1],,,
78,,7-3[8:1],
,,7,
8,,,
{12}1-3[8:1],,,
{4}5-7[8:1],1-5[8:1],
{12}7,,,
{12}6<2[4:1],,,
{8}6,5-1[8:1],
,,
{12}8,,,
{12}78,,7,
5,,5,
4,,4,
3,,,
{12}8/1-5[8:1],,,
1,,,
{12}1-5[8:1],,2,
1-4[8:1],,,
{12}1-6[8:1],,,
{4}1-5[8:1],1,
{12}8,,,
{12}7-4[8:1],,,
3-8[8:1],,,
7,,,
6h[4:1],,,
{12}5,,4,
5,,6,
5-2[8:1],,,
6,,,
{12}1-5[8:1],,,
21,,2-6[8:1],
,,2,
1,,,
{12}8-6[8:1],,,
{4}4-2[8:1],8-4[8:1],
{12}2,,,
{12}21,,2,
4,,4,
6,,6,
8,,8,
{12}1,,1,
8,,,
8,,8,
{8}1,,
{12}1/8-4[8:1],,,
{8}8,,
{12}8-4[8:1],,7,
8-5[8:1],,,
{12}8-3[8:1],,,
{4}8-4[8:1],8,
{12}1,,,
{12}3-8[8:1],,,
4-7[8:1],,,
1,,2,
2h[12:2],,4,
{12}2,,5,
7,,4,
2-6[8:1],,,
7,,,
{12}7^4[8:1],,,
78,,1-5[8:1],
,,1,
8,,8,
{12}8-2[8:1],,,
{4}4-6[8:1],7-3[8:1],
{12}2,,,
{12}2<5[4:1],,,
{8}4,4-8[8:1],
,,
{12}3,,,
{12}17,,7,
5,,2,
4,,5,
4,,,
{12}8/1-5[8:1],,,
{8}1,,
{12}1-5[8:1],,2,
1-4[8:1],,,
{12}1-6[8:1],,,
{4}1-5[8:1],1,
{12}8,,,
{12}6-1[8:1],,,
5-2[8:1],,,
8,,7,
7h[12:2],,5,
{12}7,,4,
2,,5,
7-3[8:1],,,
2,,,
{12}2^5[8:1],,,
21,,8-4[8:1],
,,8,
1,,1,
{12}1-7[8:1],,,
{4}5-3[8:1],2-6[8:1],
{12}7,,,
{12}7>4[4:1],,,
{8}5,5-1[8:1],
,,
{12}6,,,
{12}82,,2,
4,,7,
5,,4,
5,,,
{12}2-4[8:1]/5,,,
7,,,
2-4[8:1]/5,,6,
6,,5,
{12}2-4[8:1],,,
6,,,
2-4[8:1]/7,,,
6,,6,
{12}2-4[8:1],,,
7,,,
1-5[8:1]/8,,7,
7,,6,
{12}2-4[8:1],,7,
7,,8,
1-5[8:1],,,
,,,
{12}7-5[8:1]/4,,,
2,,,
7-5[8:1]/4,,3,
3,,4,
{12}7-5[8:1],,,
3,,,
7-5[8:1]/2,,,
3,,3,
{12}7-5[8:1],,,
2,,,
8-4[8:1]/1,,2,
2,,3,
{12}7-5[8:1],,,
2-4[8:1],,,
7-5[8:1],,,
,,,
{12}2-4[8:1]/5,,,
27,,,
2-4[8:1]/5,,6,
2,,7,
{12}2-4[8:1],,,
8/2,,,
2-4[8:1]/7,,,
26,,6,
{12}2-4[8:1],,,
28,,,
1-5[8:1]/8,,6,
1,,7,
{12}2-4[8:1],,6,
2-5[8:1],,7,
2,,,
,,,
{12}7-5[8:1]/4,,,
72,,,
7-5[8:1]/4,,3,
7,,2,
{12}7-5[8:1],,,
1/7,,,
7-5[8:1]/2,,,
73,,3,
{12}7-5[8:1],,,
71,,,
8-4[8:1]/1,,3,
8,,2,
{12}7-5[8:1],,,
3/7-4[8:1],,,
2-5[8:1]/7,,,
,,,
{12}7h[12:2],,8,
7^5[8:1],,,
7-4[8:1],,,
,,,
{12}8,,3,
4,,4,
1,,1-4[8:1],
4,,,
{12}5h[12:2],,4,
5^7[8:1],,,
5-1[8:1],,,
,,,
{12}8,,7,
5,,4,
5b^7[8:1]*^3[8:1],,,
5b,,,
{12}2h[12:2],,1,
2^4[8:1],,,
2-5[8:1],,,
,,,
{12}1,,6,
5,,5,
8,,8-5[8:1],
5,,,
{12}4h[12:2],,5,
4^2[8:1],,,
4-8[8:1],,,
,,,
{12}1,,2,
4,,5,
4b^2[8:1]*^6[8:1],,,
4b,,,
{12}57,,7,
8,,5,
4,,1,
2,,4,
{12}3,,7,
8,,8,
7-3[8:1],,,
73,,,
{12}42,,2,
1,,4,
5,,8,
7,,5,
{12}6,,2,
1,,1,
2-6[8:1],,,
26,,,
{12}47,,8,
1,,4,
2,,6,
8,,5,
{12}4,,1,
2,,2,
8-4[8:1],,,
48,,,
{12}52,,1,
8,,5,
7,,3,
1,,4,
{12}5,,8,
7,,7,
1-5[8:1],,,
5-1[8:1]/1,,,
(1){1},E
