&title=白鸟过河滩
&artist=ilem
&first=0.16
&des=我
&lv_7=鸟
&inote_7=(110)
{1},
{8}
6-2[4:1],,,,E5,,,,
7,5,6z2[8:3],,E5,,,,
4,5,6-2[4:1],,E5,,,,
4/5,3,6pp2[8:3],,,,,,
7,5,6-2[4:1],,,E5,,,
4,3,6z2[8:3],,,E5,,,
4/5,3,6-2[4:1],,,E5,,,
4/5,3,6z2[8:3],,,E5,,,
4/5,3,2,1-5[16:3],5,6,7,8qq3[8:3],,4,3<1[8:3],2h[2:1],,,,,1,{16},1-5[16:3],
{8},,,4,4h[8:1]/7h[8:1],,
4h[4:1]/7h[4:1],,,4h[4:1]/7,,6-2[16:3],,E5,,
3,2,1-5[8:1],5,6,7,8<3[8:3],,4,3pp6[8:3],2h[2:1],,,,,1,1z5[8:3],
{16},E8,B8,B4,E4,,
{8},,,
4/5,3/6,E5,6,6-2[16:3],{24}3,4,5,6,,,C,,,,,,
{8}
1-5[16:3],7,8,1-5[16:3],4,3v4[4:1],2v1[4:1],,,,,,3,4,5,6V41[2:1]/7,,6/7h[4:1],,,C,E1,
,
4/7h[4:1],3,4h[4:1],8,7,{24}6-2[16:3],5,4,3,,,C,,,,,,,,,
{8}
6V41[4:1]/7,5/8,1-5[8:1],8,7,6V41[8:3],,,,,,
8qq3[2:1],7,6<2[4:1],,,,,4h[4:1],,,5h[4:1],,6,6-2[4:1],,E5,6pp2[2:1],5,4,
3<6>3[1:1],,,,,,,,8h[8:1],,8h[8:1],,,
7,6-8-5-1-4-2[1:1],7h[1:1],6,,,,,,,,6-2[16:3],,6-8-4-2[2:1],,,,,,6-2[16:3],,,,,
8qq3[8:3],1,5p1[8:1],,,,6,,6-8p4q1^2[1:1],,3h[1:1],,,,,,,,,C,,E5,,
6/7,5,6-8-5-1-4-2[1:1]/7,8,,,,,,,,,6-2[16:3],,,,
6,2,6<8-5-1-4>2[8:10],1,,,,,,,,,6-2[16:3],,,,
8,2,6<8-4>2[2:1],4,C,,,,,
3/4,4/5,6-2[16:3],,1q2[8:3],,,,,6pp2[4:3],1q2[8:5],,,,,,,,,
A7,,B6,,B4,,A3,,C,
2,1h[4:1],5,6,7,8,1,8V24[8:3],8V64[4:1],,,,,C,,
2<7[8:5],2v4[2:1],,,,,,,
6-2[16:3],,E5,4q1[8:3],,6-2[16:3],,,,
1,2-5[16:3],3,8,7,6,5V38[8:3],4,4h[4:1],,,,
6h[4:1],,3h[8:1],2<7[8:5],2v4[2:1],,,,,,,
4/5,6,C,E5,4/5,{24}6-2[16:3],5,4,3,,,C,,,,,,,,,
{8}
6/7,8,6/7,5,6/7,6V41[8:3]/7h[2:1],,,,,,,
6<2b[2:1],5,6pp2[4:3],,,,,6<2[2:1],,,,6pp2[4:3],,,6h[4:1],,,6,,
1-5[16:3],8,7,8,1-5[16:3],2,3>1v4[8:3],,,,,5,6,7,8,1-5[16:3],,{16}1pp2[4:1],,,1qq4[2:1],,,,,,,E7,B6,E6,B5,A5,D5,,,,,{24}E4,B3,E3,B2,B1,,
{8}
6s2[8:3],5,4h[4:1],,,,
6V41[4:1]/7,5,6/7,8,
3<6>3[1:1],,,,,,,,8h[8:1],,8h[8:1],,,2^7[8:1],6-8-5-1-4-2[1:1],2,6,,,,,,,,6-2[16:3],,6-8-4-2[2:1],,,,,,6-2[16:3],,,,,
8qq3[8:3],1,5p1[8:1],,,,6,,6-8p4q1^2[1:1],,3h[1:1],,,,,,,,,C,,E5,,
6V41[4:1]/7,5,6-8-5-1-4-2[1:1]/7,8,,,,,,,,,6-2[16:3],,,,
6,2,6<8-5-1-4>2[8:10],1,,,,,,,,,6-2[16:3],,,,
8,2,6<8-4>2[2:1],4,E1f,,,,,
3/4,4/5,6-2[16:3],,1q2[8:3],,,,,6pp2[4:3],1q2[8:5],,,,,,,,,
A7,,B6,,6-2[16:3]/B4,,6pp2b[8:3]/A3,,6-2[8:1],,,,
6pp2b[2:1],,6<2[4:1],,6,,,,
1,2,1-7-2-6-3-5[1:1]/3,4h[2:1],,,,,,,,,1-7-3-5b[8:5],,,,
1,7,2,6,3,,5h[4:1],,,
5w1[8:1],4/6,5,,1-5[8:1],2/8,1qq5[4:1],,,,
{4}3-5[8:1],7-5[8:1],2-5[8:1],8-5[8:1],1-5[8:1],,
{8},
7/8,6,7/8qq8qq3[4:3],1,2h[8:1],,1h[8:1],,2h[8:1],,1h[8:1],,2h[8:1]/5h[8:1],,C,
6h[4:1]/7h[4:1],,,6-4-7-3-8-2[8:11]/7,5/8,6-2b[8:1],,,,5-2b[8:1],,,,4-2b[8:1],,,,
4,8,2,6-4-8-2[8:3],,C,,,,
2/6,3,4h[4:1],,6q4<2[2:1],,5h[2:1],,,,,
5>2[8:1],,5-2[8:1],,5v2[8:1],,5qq2[2:1],,,,,,
8,7,6,6w2[4:1],,6,,,,
2,2,3h[4:1],,4h[4:1],,5h[4:1],,6<2b[1:1],,6^5[2:1],,,,,,,,,
6,,6,,{24}6-2[4:1],5,4,3,,,{8}C,E5,
6-2[8:3],,,,,,,,
6z2[2:1],,,,,,,
6-2[1:1],,,,,,
