&title=惊蛰正中央
&artist=ここから立入禁止
&first=0.01
&des=春分在远方
&clock_count=4
&lv_5=13
&inote_5=(130){1},,
{8},,,,,,,
{32}7,6,5,4,
{8}2h[4:1],4,4,,5/3-5[8:1],,,,7h[4:1],5,5,,4/6-4[8:1],,,,2h[4:1],4,4,,5/3-5[8:1],,6,7,8-5[8:1],8,5,,4-1[8:1],4,5,,6h[8:3],8,8,,1/7-4[8:1],,,,3h[8:3],1,1,,8/2-5[8:1],,,,6h[4:1],8,8,,7<4[8:1]/1,,1,2,3h[8:3],4,5,,3h[4:1],4,5,,7h[4:1]/3,,5,6,4-1[8:1],,5,6,7h[8:1],3-5[8:1],6-8[8:1],,6-2[8:1],,1,,7h[8:3],5,4,,6h[8:3],3,2,,5p1[8:1]/1>4[8:1],,1,,4q8[8:1]/8<5[8:1],,8,,2h[4:1]/6,,4,3,5-8[8:1],,4,3,2h[8:1],6-4[8:1],3-1[8:1],,3-7[8:1],,8,1,2h[8:1],6,3h[8:1],4,2h[8:1],5,3h[8:1],4,1q5[8:1]*>4[8:1],,1,,6h[8:1],
{16}5,7,4>1[8:1],,4,,8-4[8:1],,,,
{8}18,2,3-1[8:1],5,6,,8-4[8:1],,8/1-3[8:1],2,5-7[8:1],,,,1-5[8:1],,81,7,6-8[8:1],4,3,,1-5[8:1],2,1/8-6[8:1],,4-2[8:1],,,,5-1[8:1],5,4-2[8:1],4,6-8[8:1],6,5-1[8:1],5,6p4[2:1],6,4,3,2h[4:1],,,,5-3[8:1]/3,2,1h[8:1],,2-5[8:1],5,6h[8:1],,7-5[8:1],5,4,3,2-6[8:1]/4h[4:1],,,,5-7[8:1],5,8h[8:1],,1-5[8:1],1,8h[8:1],,7h[8:1],
{16}5,6,5,,7-5[8:1],,4-8[8:1],,,,,,,,4-8[8:1],,4,,1h[8:1],,,,2-4[8:1],,2,,1h[8:1],,,,8h[4:1],,5,,4,,7,5,6h[8:1],,5,,4,,3,4,2-4[8:1],,4,,5h[8:1],,,,
{8}6-8[8:1],5,4h[8:1],,7h[8:1],
{16}5,6,5,,7-5[8:1],,4-8[8:1],,7,,4,,,,
{8}5-1[8:1],1,2-4[8:1],,8-6[8:1],7,5-1[8:1],,4,3,2-5[8:1],2,8,7,6,,7h[4:1]/4,,3,2,1h[8:1],4,6h[8:1],5,
{16}7,4,7,,6h[8:1],,5,,7-4[8:1]/4-1[8:1],,,,,,,,5/2h[4:1],,,,6,,7,,8h[8:1],,5,,7,4,7,,8h[8:1],,5,,3<8[4:1],,4,,5h[4:1],,,,,,,,6h[8:1]/2,,5,,7,,4,,7/3h[8:1],,4,,2,,5,,56,,7,,34,,2,,8<5[8:1]/1>4[8:1],,,,,,,,7-3[8:1],,3-5[8:1],,2h[8:1],,,,1-5[8:1],,5-3[8:1],,6h[8:1],,,,7<3[4:1],,,,3>7[4:1],,,,7,,,,3,,2,,1h[4:3]/5h[4:1],,,,,,,,6-4[8:1],,,,,,,,
4-6[10:1]/2-5[8:1],,,,4>8[5:1],,,,4-6[10:1]/7,,,,
4q8[8:1],,8,,4/1,,2,,3-5[10:1]*>8[8:1],,8<5[8:1]*<5[8:1],,3,,,,,,4,,
3-7[8:1]/2,,,,1>4[8:1]/3,,,,1-5[8:1]/8,,,,1<6[8:1]/4,,3,,1>4[8:1]/4,,5,,
{384}6<8[8:1]*-2[8:1]/1,,,,,,,,,,,,,,,,,,,,,,,,,,,,,,,,,,,,,,,,,,,,,,,,
{16},,6,,,,2/8,,1/7,,
6-8[10:1]/8-4[8:1],,,,8>6[5:1],,,,3/8-4[8:1],,,,
8<5[8:1],,7,,1/8,,2,,3<5[10:1]*>8[8:1],,5V36[5:1],,3,,,,
1,,2,,
3h[4:1],,,,6,,5,,3>8[8:1],4,3,,3/5V36[4:1],,6,,
1>4[6:1]/5,,2,,1,,,,6V48[5:1]*V48[5:1]/5,,,,3,,2,,
1-5[8:1],,7,1,7<4[8:1]*>1[10:1],,,,7-2[8:1],,,,
3/7<4[8:1],,4,,3/7q4[8:1]*-4[8:1],,1,,7>6[4:1],,,,1/7,,,,8,1,
2,3,
4-8[8:1],,,,4<7[8:1]/8>3[8:1],,,,4V28[5:1],,,,
4<7[8:1],,7,,4-8[8:1],,1,,4>6[4:1],,7,,4/6h[8:1],,,,
1,8,7,6,
5-1[8:1]/2-4[10:1],,,,2<6[6:1],,,,2-5[8:1],,3,,
2<6[8:1],,6,,2,,5,,4-8[8:1]*>2[10:1],,8<5[8:1]*<5[8:1],,4,,,,
1,,2,,3/5-1[8:1],,4,6,5<8[8:1],,7,,2-4[10:1]/5,,4-8[8:1],,2,,8>3[8:1],,
7,,6,,5pp4[4:1],,,,3qq2[6:1]/5,,4,,3,,,,
7-4[8:1],,6,,2h[4:1],,,,3,3,2,,4,,1,,5-3[8:1],,2,2,5,,1-5[8:1],,6-1[8:1],,1,,6,,,,4V28[4:1],,3,,4/7h[8:1],,,,6h[8:1],,8,,7h[8:1],,5,6,4-1[8:1]*-7[8:1],,35,,4,,,,8w4[8:1],,17,,8,,,,6h[8:1]/2,,5,,4h[8:1]/7<4[8:1],,,,3h[8:1]/7-3[8:1],,,,7/2h[8:1],,,,1h[8:1],,4,2,5-3[8:1],,3-6[8:1],,5,,2,,2h[8:1],,,,7<4[8:1],,5,,3h[8:1],,,,1>4[8:1],,4,,6h[8:1],,,,7h[8:3],,5,,4,,,,6h[4:1],,5,,4,,4-8[8:1],,7-4[8:1],,,,,
{48},
{16}1,,2,,3<6[8:1],,
{48}3,,
{16},7h[8:1],,,7,7,8,6,,1>4[8:1],,1<6[8:1],,1,,,,
5>2[8:1],,5-1[8:1],,5,,,,
2-5[8:1],,3,,2,,8h[8:1],,5,5,7-4[8:1],4,6,,7,,2>5[8:1],,1,,2/6,,,,
8z4[8:1]*v6[8:1],,1/7,,8,,,,
7<4[8:1],,7,,2h[8:1],,,2,2,4,3,,5<8[8:1],,5,,4>1[8:1],,4-8[8:1],,4,,,,
1>4[8:1],,1<6[8:1],,1,,,,
4-1[8:1],,4,,6,,5,,4h[8:1],,,2,4,3,5,4,6>3[8:1],,7,,6/4,,2,,
1s5[8:1]*v3[8:1],,8/2,,1,,,,2b-6[8:1]/6b,,,
E
