&title=Brain Rot
&artist=Tokyo Manaka
&first=0.04
&des=my brain rotted charting this
&wholebpm=135
&lv_5=13+
&inote_5=(135)
{1},
,
{4}E6/4h[8:1],E4/5h[8:1],E6/4h[8:1],E4/5h[8:1],
A6/D6/4h[8:1],A3/D4/5h[8:1],A6/D6/4h[8:1],A3/D4/5h[8:1],
B6/4h[8:1],B3/5h[8:1],B6/4h[8:1],B3/5h[8:1],
A6/E7/4h[8:1],A3/E3/5h[8:1],6bpp8b[8:1]/4b^1b[8:1],6b/4b,
{8}
7,6,{48}5/E3,B3,,,,,{8}6,7,6,{48}5/B2,E3,,,,,{8}6,
7,6,{48}5-3[8:1]/E3,B3,,,,,{8}6,5/7-5[8:1],,{48}7/B2,E3,,,,,{8},
2,3,{48}4/E7,B6,,,,,{8}3,2,3,{48}4/B7,E7,,,,,{8}3,
2/B6/E6,2,7/E2/B2,7,3/E8/B7,3,6/B3/E4,,
5,6,{48}7/B4,E5,,,,,{8}6,53,6,{48}7/B3,B4,,,,,{8}6,
3-1[8:1]/5,2,6-4[8:1],7,2,3,4,5,
6h[8:5]/4qq5[8:6],,,,,,6,6h[8:2],
,,5,5,6bpp8b[8:1]/4b^1b[8:1],,6b/4b,,
3-8-3[8:12],,D6h[8:12]/E7,,B6,,B5,,E5,,B5,,B6,,E7,,
6-1-6[8:12],,D4h[8:12]/E3,,B3,,B4,,E5,,B4,,B3,,E3,,
2-7-2[8:12],,D5h[8:10]/E6,,B5,,B4,,E4,,B4,,B5,,
6<5^7b[8:8]*<4^7b[8:8]*^7^8^1^2^3^4^5^6^7[8:8]*q7[8:8],,
,,,,,,,,
{4},,,,
{8}B5h[8:2],2,E4h[8:2],7,E6h[8:2],2,B4h[8:2],6,
5xqq3[8:2],3,3pp5[8:2],4,4h[8:2],,,,
{8}B4h[8:2],7,E6h[8:2],2,E4h[8:2],7,B5h[8:2],3,
4xpp6[8:2],6,6qq4[8:2],5,5h[8:2],,,,
{8}B6h[8:2],1,B2h[8:2],7,B8h[8:2],3,B4h[8:2],6,
7x,6,4-7[8:1]/5-7[8:1],3,4-2[8:1]/5-2[8:1],,45,,
5pp4[8:6]/3h[8:5],,,,,,3,3h[8:2],
,,4,4,3bqq1b[8:1]/5b^8b[8:1],,3b/5b,,
2bh[8:2],8-2[8:1],6h[8:1],8-6[8:1],A2h[8:1]/7,8-2[8:1],A6h[8:1]/1,8V64[16:3],
A2h[8:1]/7,8,3qq7[8:3],2,1h[8:4],,,,
7h[8:2],1-7[8:1],3h[8:1],1-3[8:1],A7h[8:1]/2,1-7[8:1],A3h[8:1]/8,1V35[16:3],
A7h[8:1]/2,1,6pp2[8:3],7,8h[8:4],,,,
2h[8:2],4-2[8:1],6h[8:1],4-6[8:1],A2h[8:1]/5,4-2[8:1],A6h[8:1]/3,4,
A2h[8:1]/5,4,4-6[8:1]/3-7[8:1],2,3-1[8:1]/4-8[8:1],,43,,
3h[8:5]/7qq4[8:6],,,,,,3,3h[8:2],
,,4,4,3bqq1b[8:1]/5b^8b[8:1],,3b/5b,,
D3h[8:1]/D4h[8:1]/D5h[8:1]/D6h[8:1]/D7h[8:1]/D2h[8:1]/D1h[8:1]/D8h[8:1]/A3h[8:1]/A4h[8:1]/A5h[8:1]/A6h[8:1]/A2h[8:1]/A1h[8:1]/A8h[8:1]/A7h[8:1]/E3h[8:1]/E4h[8:1]/E5h[8:1]/E6h[8:1]/E7h[8:1]/E2h[8:1]/E1h[8:1]/E8h[8:1],,
1bx/8bx,7x,4xpp5[8:2]/6x,,5x>7[8:2],,7xqq6[8:2],,6x<4[8:2],,4xqq1[8:3],5x,6x-8[8:1],,
,,5xqq4[8:2]/2x,3x,4x<2[8:2],,2xpp3[8:2],,3x>5[8:2],,5xpp4[16:5],4x,3x,2x,1x,2x,
E7/E1/B7/B8,,1x/6x,7x,1xqq8[8:2]/8x,,8x>6[8:2],,6xpp7[8:2],,7x<1[8:2],,1xpp4[8:3],8x,7x-5[8:1],,
,,8xpp1[8:2]/3x,2x,1x<3[8:2],,3xpp4[8:2],,2x,,1x,
{16}E2/D2,4xh[16:1],E3/D3,5xh[16:1],E4/D4,6xh[16:1],E5/D5,7xh[16:1],E6/D6,8xh[16:1],
{8}6xb-1-6b[8:12]*-1[8:6],,D4h[8:12]/E3,,B3,,B4,,E5,,B4,,B3,,E3,,
{8}3-8-3b[8:12]*-8[8:6],,D6h[8:12]/E7,,B6,,B5,,E5,,B5,,B6,,E7,,
{8}7-2-7b[8:12]*-2[8:6],,D5h[8:10]/E4,,B4,,B5,,E6,,B5,,B4,,
3>4^2b[8:8]*>5^2b[8:8]*^2^1^8^7^6^5^4^3^2[8:8]*p2[8:8],,
,,,,,,,,
{4},,,,6^5-3^4-6[4:4],C,,C,,C,
{24}4,,3,5,,6,3,,2,6,,7,
{8}
2bh[8:2],8-3[8:1],6h[8:1],8-5[8:1],A3h[8:1]/7,8-3[8:1],A5h[8:1]/1,8<4[16:3],
A3h[8:1]/7,8,3qq7[8:3],2,1h[8:4],,,,
7h[8:2],5-8[8:1],3h[8:1],5-2[8:1],A8h[8:1]/4,5-8[8:1],A2h[8:1]/6,5,
A8h[8:1]/4,5,5^3[8:1]/6p2[8:1],7,6^8[8:1]/5q1[8:1],,56,,
3h[8:5]/7qq4[8:6],,,,,,3,3h[8:2],
,,4,4,3bqq1b[8:1]/5b^8b[8:1],,3b/5b,,
E2,8v3[8:1],6h[8:1],8v5[8:1],A3h[8:1]/7,8v3[8:1],A5h[8:1]/1,8<4[16:3],
A3h[8:1]/7,8,3qq8[8:3],2,5-7[8:1]/3,,,,
7h[8:2],1v6[8:1],3h[8:1],1v4[8:1],A6h[8:1]/2,1v6[8:1],A4h[8:1]/8,1>5[16:3],
A6h[8:1]/2,1,6pp2[8:3],7,5-3[8:1]/6,,,,
3h[8:2],5qq3[8:1],7h[8:1],5pp7[8:1],A3h[8:1]/6,5qq3[8:1],A7h[8:1]/4,5,
A3h[8:1]/6,5,4^6[8:1]/3q7[8:1],2,3^1[8:1]/4p8[8:1],,43,,
6h[8:5]/2pp5[8:6],,,,,,6,6h[8:2],
,,5,5,3qq1[8:1]/7qq5[8:1],26,,,
{1},
E
