&title=DOKI DOKI SCARY
&artist=Poppin'Party
&first=-0.03
&lv_5=13+
&des_5=小kai也算开
&inote_5=
(142){4},,,,,,,,{2}8b/7x>4[8:1],
1b/2x<5[8:1],
5xh[4:1]/4>8[8:1],4xh[4:1]/5<1[8:1],
{12}8,1,7,2,6,3,{4}5,8x-5[8:1]*>5[8:1],
8bx,8x-5[8:1]/1xp4[8:1],1bx/8bx,8x/1xs5[8:1],
1bx/8bx,8xv5[8:1]/2xv5[8:1],2b/8b,7bx/3bx,
{16}1x<5[8:1],2x,3x,4x,{8}5x/1-3[8:1],3,6/1-7[8:1],7,3/1-5[8:1],2,
7/1<6[8:1],8,3/1>4[8:1],2,7/1-5[8:1],8,1/3,2,
{16}8x>4[8:1],7x,6x,5x,{8}4x/8-6[8:1],6,3/8-2[8:1],2,6/8-4[8:1],7,
2/8>3[8:1],1,6/8<5[8:1],7,2/8-4[8:1],1,8/6,7,
{16}1x<5[8:1],2x,3x,4x,{8}5x/1x-4[8:1],3,1/6-3[8:1],7,6/2-8[8:1],1,
2/5-1[8:1],6,5/3-7[8:1],2,3/6-2[8:1],5,6/3,4,
{16}8x>4[8:1],7x,6x,5x,{8}4x/8x-5[8:1],6,8/3-6[8:1],2,3/7,8,
7b/3b,6b/2b,4b/8bz4b[8:3],1b/5b,{2}8b/4b,
{4}6h[8:1]/5h[8:1],3h[8:1]/4h[8:1],{16}2-5[8:1],{8},{16}1,{8}2,6,
{16}7-4[8:1],{8},{16}8,{8}7,3,2-4[8:1]*-5[8:1],7,{4}A2f,
4h[8:1]/3h[16:3],6h[8:1]/5h[8:1],{16}7-4[8:1],{8},{16}8,{8}7,3,
{16}2-5[8:1],{8},{16}1,{8}2,6,7-1[8:1]*-2[8:1],E5f/B5/B4,{4},3h[16:3]/4h[8:1],
6h[16:3]/5h[8:1],{16}7-4[8:1],{8},{16}8,{8}7,3,
2x-6[8:1],3,2x/1x-5[8:1],8,1x/2x-6[8:1],3,{4}2x/1x,
{8}E8/E4,E2/E6,B8/B4,B1/B5,{4}A8f/A4,8x-5[8:1]*>5[8:1],
8bx,8x-5[8:1]/1xv4[8:1],{2}A8/D1f/A1,
{12}6,5,6,3,4,3,7,6,7,2,3,2,
8,7,6,5,4,3,{4}2-8[8:1]*-7[8:1],A2f,
{12}6,6,5,3,3,4,7,7,5,2,2,4,
1,2,3,4,5,6,{4}7-4[8:1]*-5[8:1],A7f,
4xh[8:1]/3xh[8:1],3xh[8:1]/2xh[8:1],2xh[8:1]/1xh[8:1],E7f/B7/B6,
5xh[8:1]/6xh[8:1],6xh[8:1]/7xh[8:1],7xh[8:1]/8xh[8:1],E3f/B2/B3,
{8}7x/3x,4,6/4,5,4x/2x,3,7/3,8,
8x/1x,8/1,8/1,8/1,{16}1,8,1,8,1-5b[8:1],8,1,8,
{2}1x,{16}8-5[8:1]/1v4[8:1],2/7,{8}3/6,{4}8b/1b,
{8}2b/6<3[4:1],5x/4x,3>6[4:1],4x,5<2[4:1],4x,3>6[4:1],4x,
5<2[4:1],4x,3>5[4:1],4x,5-1[8:1],4x,{4}E3f/B2/B3,
{8}4x/5x<8[8:1],{16}6,6,{8}5x/4x>1[8:1],3,4x/8x<5[8:1],7,{24}1/8,2,3,4,{12},{16}5,
4,5,4,{8}6h[8:3],{16}3,3h[16:3],{4},E1f/B8/B1,
{8}7b/3>6[4:1],4x/5x,6<3[4:1],5x,4>7[4:1],5x,6<3[4:1],5x,
4>7[4:1],5x,6<4[4:1],5x,4-8[8:1],5x,{4}E7f/B7/B6,
{12}7x,7x,7x,3x,3x,3x,{4}2bh[8:1]/6bh[8:1],5x-8[8:1]*>8[8:1],
5bx,5x-8[8:1]/4xv1[8:1],5bx/4bx,7bx/3bx,
{8}2bh[16:3],4h[16:1],2h[16:3],{16}7,7,{8}2bh[16:3],4h[16:1],2h[16:3],{16}7,7,
{8}2bh[16:3],4h[16:1],2h[16:3],{16}7,7,{8}2bh[16:3],4h[16:1],2h[16:3],{16}7,7,
{8}7x>2[8:1],8,7x/3x<6[8:1],4,3x/7x>2[8:1],8,7x/3x,4,
{16}6,5,6,5,{8}6h[8:3],{16}3,3h[16:3],{4},7bx/2bx,
{8}7bh[16:3],5h[16:1],7h[16:3],{16}2,2,{8}7bh[16:3],5h[16:1],7h[16:3],{16}2,2,
{8}7bh[16:3],5h[16:1],7h[16:3],{16}2,2,{8}7bh[16:3],5h[16:1],{4}7h[4:1],
{12}2,3,4,5,6,7,{4}8b-5[8:1]*-4[8:1],8b-3[8:1]*-2[8:1],
8b-4[8:1],8b>2[8:1]*<6[8:1],8b>3[8:1]*<5[8:1],8b>4[8:1]*<4[8:1],
8b-5[8:1]*-3[8:1],8bw4[8:1],8b,3xh[4:1],
C,6xh[4:1],C,2xh[4:1],
C,7xh[4:1],{2}Ch[16:5],
{16}3,4,{8}2,{16}6,5,{8}7,{16}2-6[8:1],1,2,1,{8}2,5,
{16}3,4,{8}2,{16}6,5,{8}7,{16}7-3[8:1],8,7,8,{8}7,4,
{16}2,1,{8}3,{16}7,8,{8}6,{16}4-8[8:1],5,4,5,{8}4,7,
E2/E6,E8/E4,B1/B5,B8/B4,C,5x/4x,,7x/2x,
{16}1x,8,1,8,2,7,2,7,3x,6,3,6,4,5,4,5,
8x,7,8,7,1x,8,1,8,2x,1,2,1,5x,6,5,6,
4x,5,4x,5,3x,4,3x,4,2x,5,1x,6x,8x,7x,{8}8x,
1x/7x,6x/2x,5x/3x,4,1,8x/2x,7x/3x,6x/4x,
5-7[8:1],6,4-2[8:1],3,5-1[8:1],6,4-8[8:1],3,
{4}4b/6-2[8:1],6b/8w4b[8:1],{2}8b,
E
