&title=Silver Bullet
&artist=xi
&first=0
&des=thiazole
&lv_5=14+
&inote_5=(168)
{8},,,,,,{16}8,7,6,5,
{16}2h[8:2]/4,,,,4-8[8:1],,,,4,,,3,,,1/2h[8:2],,
{16},,8,7,6,,1,2,3,,8,7,6,,2,3,
{24}5,4,5,4,5,4,{16}6,3,5,4,6/3,,,5/4,,,36,,
{16},,1,,
{16}7,6,5,4,2,3,4,5,7,6,5,4,
{16},8/2-5[8:1],,,,6,,6,,7/4,7/4,,6/5,,,1/2,
{16},,,8,7,6,,1,2,3,,8,7,6,,1/8,
{16}2,3b/5b,,,5,6,7,8/5bh[16:3],,,1,2,3,1bh[16:3]/4,,,5,6,7,8/5b,{24}6x,7x,8x,1x,2x,3x,4x,5x,6x,7x,8x,1x,2x,3x,4x,5x,6x,7x,
{8}8bx/Cf,,4,4/6,4/6,7/5,7/5,6/8,
{8}6/8,{16}1h[8:3],,2,3,4,5,6,7,8/1,,,5/4,,,
{24}7/2,,,,E3,B3,B4,E5,,,6h[24:13],,,,,,8,,,,,,,2h[24:7],,,,,,,7,8,1,2<6[8:4],,,,,,,,,,,,,,,
{16},,,,,3h[8:1],,5,,3,4,2,4,3h[8:1],,5h[16:1],3,
{16},4h[16:1],2,,5h[16:2],,1,5,2,6,3,7,4,5,4,
{16}5,4,6,4,5,3h[8:3],,,4bq5[8:11],,,{32}B4,C,{16}B8,,,,
{8},,,,,,,,
{4},
{16},,,45,,6,4,7,5,6,,12,
{16},3,5,2,4,3,5h[8:2]/2,,3,,,4,6,3,7,,
{16}4,6,5,8-4[8:1],1,7,,8/6,,,,8w4[8:1]/7,,,,8,,,,1/8<5[8:1],,,,8>3[8:1],,{32}B1,,,,8,,,,B6,,,,{48}8,,,,8,,,,8,,,,4,,,,4,,,,4,,,,,,,{24}5h[8:2]/3,,,E4,B4,B5,E6,,,7,,,
{24}1h[8:2],,,E8,B8,B1,E2,,,3,,,6h[8:2],,,E4,B3,B2,E2,,,{16}8,,3h[8:1],
{16},7,,4,8,4,7,6h[8:1]/4h[8:1],,,,5/3h[16:1],,5/3h[16:1],,
{16}7h[16:1]/4,,7h[16:1]/4,,2h[16:1]/6,,2h[16:1]/6,,8/1,,8,,7,5,6,4,5h[8:1],,1,5,2,5,3,6,4,,8-3[8:1]/7,,,,,,
{24}7x,6x,,2x,3x,,E8,B7,,E2,B2,,6x,5x,,3x,4x,,A8,A7,,A1,A2,,6x,5x,,3x,2x,,7x,6x,,4x,3x,,8xb-3[8:1],1,2,3,4,5,8b,,,,,,
{24},4-8[8:1]/5-1[8:1],,,6/3,,,5b/4b,,,{16},,7/5,,6,5,7/4,,5,4,3/6,,4,3,2>5[8:1]/5,,,,{96},,,,{24}8bp2[12:3]*p6[12:5],,8b,,8b,,,,,,,,,,,,,,,4bp6[12:3]*p2[12:5],,4b,,4b,,,,,,,,,,,
{24},,,6b/4b,,,,7b/1b-5[0.25##0.1],,,,3b/1b,,,,2b,,2b,,2bh[12:2],,,,,
{16}6h[128:1],4h[128:1],5h[128:1],3h[128:1],5h[128:1],4h[128:1],
{12}7h[128:1],3h[128:1],1h[128:1],
{12}8/2,8/2,8/2,3/7,3/7,3/7,4p2[16:6]/6p7[16:4],,,{16},,,,,,{12},,,,,7,5,6,2,4,3,5h[12:3],,1,,B3,,5,4,6,4,5,3,7,4h[12:3],,8,,B7,,3,1,2,6,8,7,1h[12:3],,5-8[8:1],,C/B3,,,1,7,2,8,1,7,3h[12:3],,1-6[8:1],,E4/B4,,5>2[8:1],,6x,5,,8,,18,
{24}1-5[8:1]/8-4[8:1],,7h[24:1]/2h[24:1],,,,1b/8b,,,,,,{16}3,2,7/1,6,5,4,1,2,3,4,8,7,6,5xh[8:2],,4,3,2,1,8,7,6,5/8hb[16:3],,4,3,2,1,8/4hb[16:3],,7,6,5,4,3/7bx,,6x,5x,4x,3x,2x,1x,
B6,B5,B4,B3,18,1-5[8:1]/8-4[8:1],,7b/2b,,1b/8b,,,
6h[16:3],,
{16}8,,6,5,7,1,6-1[8:1],,1p4[8:1]/7,,6/4,,3x,2x,1x,,
{16},3,4,2,8,3,5,{24}5,,6-1[8:1]/4q1[8:1],,,7/3,,,4b/6b,,,,,{24}B1,B2,B3,B4,B5,B6,E8,E1,E2,E3,E4,E5,E6,E7,{16}Cf,,7x,,1-6[8:1],,3,,1/4q1[8:1],,2,,4/3p6[8:1],,,,3,,,,8bv1[24:68],,,{32},,4,,{48},,,,{48}6,,,,,{96},,,{16}2,4,3,4,2,5,4,5,3,6,3,6,4,7,4,7,
{24}
4,6,4,6,4,6,
5,3,5,3,5,3,
4,2,4,2,4,2,
3,2,3,2,3,2,
3,4,5,6,7,8,
A2,D3,A3,D4,A4,D5,
,,{96},,,,,,,
{16},5b/4b,,1b/8b,,,,3h[16:2],4,5,6,3h[16:2],4,5,6,{32}2,3,4,5,6,7,8,1,2/6bx,3,4,5,6,7,8,1,{16}2/5bx,,,7b/8b,,,5/3,,
{16}Cf/B2/B1/B7/B8,,,,5x,3x,7x,2x,8x/1x,,3,3h[8:1],,1,1-4[8:1],,4-1[8:1],,1-6[8:1],,2-5-2b[8:2],,3x,,2x,,6x,,8,8,,7bpp2[8:3]/3b,,
{16},,5,,4,,3,,4,,4,1,4,1,2,8,3,8,,1/7h[8:2],,2,3,4,5-1[8:1],,,8,5-8[8:1],,6,,
{16}5/2,,,7/3,,,73,,7h[16:3]/3,4,,2h[16:1],,,7h[16:3]/3,4,,1h[16:1],,,8b,8b,8b,8b,{32}1h[16:4]/7b,6,5,4,3,,,,,,{32}1h[16:4]/8b,7,6,5,4,
{16},,,,4x,4x,4x,4x,5,3,6,2,7,1,{32}8x,B8,C,B4,
{16},,3,7,4,6,5,6,
4,8,4,6,3,8,3,5,
{16}2h[128:1],8h[128:1],2h[128:1],4h[128:1],
3b,5b,2b,7b,1b,,6,6h[8:1],,8,8-5[8:1],,
{16}5-8[8:1],,8-3[8:1],,7-4-7b[8:2],,6x,,7x,,3x,,1,1,,2bqq7[8:3]/5b,,
{16},4,,5,,6,,5,,5,8,5,8,7,1,6,1,,8/2h[8:2],,3,4,5-1b[16:2],,,,4,5,,3,,
{16}4q1b[8:1]/6-1b[8:1],,,5,6/4,,,,7/3,7/4,,6,1,,2/6,2/5,,3,8,,7b,6b,7b,,84,48,,15,15,,{32}8b/4b,7/3,6/2,5/1,8/4,,
{16},1,5,2,6,3,7,1b,8,2,7,4,6,5b,,3,4,2b,6,5,7,2b,8,3b,7,1,7,2,7,3,7,1h[128:1],6h[128:1],2h[128:1],6h[128:1],3h[128:1],6h[128:1],4h[128:1],
{16}4,
7x,5,5,5,8x,5,5,5,1x,5,5,5,2x,5,5,5,3xb,2,1,8,5-1[8:1],4,3,2,1b/5b,,,3b,,,2bh[8:2]/8b,,,,8-4[8:1],7,6,,4/8,5,6,,3,2,1,,3,2,1h[8:1],,{32}4b,5,6,7,8,1,2,3,4,5,6,7,{16}1bx/8bx,,,5b/4b,,,7b/2b,,,,
6,6,2,5,1,6,5,6,7,6,5,7,8,6,1b,,5,,
1,1,5,4,8,3,4,3,7,3,2b/8b,,,,
4,5,1,6,5,6,7b/4b,,8b/3b,,4,5,6,7,8/5bh[16:3],,,1,2,3,1bh[16:3]/4,,,5,6,7,8/5bh[16:3],,,1,2,3,1bh[16:3]/4b,,{24}5,6,7,8,1,2,3,4,5,6,7-3[16:1],8,1,,,7b/3b,Cf,,,,,{96},,{16}4,,{8}5/3,5/3,2/5,2/5,5/1,
{8}5/1,{24}8b/4b,,8x/4x,,8x/4x,,1b/5b,,1x/5x,,1x/5x,,6b/2b,,6x/2x,,6x/2x,,7b/3b,,7x/3x,,7x/3x,,8bp6[8:4]/4bp2[8:4],,,,,,,,,,,,,,,,,,,,,,,,5/4,,,1/8h[8:1],,,7,6,5,4,3,2,1,{24}8,,,,{16}7/2,6/3,,{24}5bh[8:4]/1bh[8:4],,,,,,,,,,,,,1/5,2/6,3/7,4/8,5/1,6,7,8,1,2,3,4,5,6b/1b,
&inote_7=(168)
{16},,,,,5h[8:1],,7,,5,6,5,6,7,5-1[8:1],8,5,,
{16},,6,,1,2,3,4,5,6,7,8,1,
,,5x,3x,7x,2x,8x/1x,,3,3h[8:1],,1,1-4[8:1],,4-1[8:1],,1-6[8:1],,2-5-2b[8:2],,3x,,2x,,6,,8,8,,7bpp2[8:3],,
