&title=嘘と絵画
&artist=ねこぼーろ
&first=0.29
&des_1=术gaze
&des_2=术gaze
&des_3=术gaze
&des_4=术gaze
&des_5=术gaze
&lv_5=13
&des_6=术gaze
&des_7=术gaze
&des=术gaze
&inote_5=(64.666){4},{8},Cfh[8:15],{1},{4},,,{12}7qq8[6:1],
6,6,{4}7/3h[6:1],{12}8/2pp1[6:1],3,3,
{4}2/6h[6:1],{12}4/5-7-4-8[4:1],3,7,{4}5/1h[6:1],{12}2-4-1-5[4:1],4,7,
{4}2/5h[6:1],{12}7pp6[6:1],8,8,{4}7/3h[6:1],{12}8/2qq3[6:1],4,4,
{4}2/6h[6:1],{12}4/5qq7[4:1],3,2,{4}5/1h[6:1],{12}2pp5[4:1],4,7,
{4}2/6h[6:1],{12}7>6[4:1],6,5,{4}7/4h[6:1],{12}3>4[4:1],4,5,
{4}3/6h[6:1],{12}7>6[4:1],6,{24}5,4,{4}7/3h[6:1],{12}2-4[12:1],4-1[12:1],1-5[12:1],
{6}2/5,{12}6,7qq8[6:1],,8>6[6:1],{4}7/2h[6:1],8x-3-5-1[4:1],
8/4h[6:1],{12}2q5[4:1],5,6,{4}7p4[4:1],{12}7,,3,
{4}2h[4:1],{12}1<4[6:1],3,4p3[6:1],{4}2,2q5[6:1],
{6}2,{12}8,7pp3[4:1],4,6,{4}7/2h[6:1],{12}1w5[8:1],,2/8,
{4}1,{12}7/3V15[6:1],4,5,{4}6pp2[4:1],{12}6,,3,
{6}4>5[4:1],{12}5,6h[6:1],,,{6}8xV27-3[4:1],{12}3,8/4w8[8:1],,,{4}4,
{12}2/3,3/4,4/5,5/6,7/6,1/8,5pp4[6:1],7,7,
{4}5x/6x,{12}7/6,6/5,5/4,4/3,2/3,8/1h[12:1],4qq5[6:1],2,2,
{4}4x/3x,{12}2/3,3/4,5/4,5/6,6/7,1/8h[12:1],2,{24}3h[24:1],4h[24:1],{12}2h[12:1],
8,{24}7h[24:1],5h[24:1],{12}6,7/6,6/5,4/5,4/3,3/2,8/1h[12:1],7,{24}6h[24:1],5h[24:1],{12}7h[12:1],
1,{24}2h[24:1],4h[24:1],{12}3h[12:1],2<3[4:1],3,4,{4}2/5h[6:1],{12}6<5[4:1],5,4,
{4}6/3h[6:1],{12}2<3[4:1],3,{24}4,5,{4}2/6h[6:1],{12}7-5[12:1],5-8[12:1],8-4[12:1],
{6}7/4,{12}3,2pp1[6:1],,1<3[6:1],{4}2/7h[6:1],1x-6-4-8[4:1],
1/5h[6:1],{12}7p4[4:1],4,3,{4}2q5[4:1],{12}2,,6,
{4}7h[4:1],{12}8>5[6:1],6,5q6[6:1],{4}7,7-5-1[6:1],
{6}7,{12}2,2qq6[4:1],5,3,{4}2/7h[6:1],{12}8w4[8:1],,7/1,
{4}8,{12}2/6V84[6:1],5,4,{4}3qq7[4:1],{12}3,,6,
{6}5<4[4:1],{12}4,3h[6:1],,,{6}1xV72-6[4:1],{12}6,1/5w1[8:1],,,{4}5,
{12}7/6,6/5,5/4,4/3,2/3,8/1,4qq5[6:1],2,2,
{4}4x/3x,{12}2/3,3/4,4/5,5/6,7/6,1/8h[12:1],5pp4[6:1],7,7,
{4}5x/6x,{12}7/6,6/5,4/5,4/3,3/2,8/1h[12:1],7,{24}6h[24:1],5h[24:1],{12}7h[12:1],
1,{24}2h[24:1],4h[24:1],{12}3,2/3,3/4,5/4,5/6,6/7,1/8h[12:1],2,{24}3h[24:1],4h[24:1],{12}2h[12:1],
8,{24}7h[24:1],5h[24:1],{12}6h[12:1],2pp5[4:1],3,4,{4}5>6[4:1],7h[6:1],
{12}8-4[12:1],1-5[12:1],{6}2-6[12:1],,3pp6[4:1],{12}5,6>8[4:1],,8,
{4}7h[6:1],{12}6-2[12:1],5-1[12:1],4-8[12:1],,,,3qq7[6:1],,7,
{4}6h[6:1],{12}2-5[12:1],4-7[12:1],3-6[12:1],,,,8w4[8:1],,7/1,
{4}8,{12}7qq4[4:1],6,5,{4}4<3[4:1],2h[6:1],
{12}1-5[12:1],8-4[12:1],{6}7-3[12:1],,6qq3[4:1],{12}4,3<1[4:1],,1,
{4}2h[6:1],{12}3-7[12:1],4-8[12:1],5-1[12:1],,,,6pp2[6:1],,2,
{4}3h[6:1],{12}7-4[12:1],5-2[12:1],6-3[12:1],{4}1,{12}1w5[8:1],,2/8,
{4}1,7qq8[6:1],5-1[12:1],4-8[12:1],
3qq4[6:1],7V51[6:1],4V26[6:1],7-1-5[6:1],
C,2pp1[6:1],4-8[12:1],5-1[12:1],
6pp5[6:1],2V48[6:1],5V73[6:1],2-8-4[6:1],
C,A7b,
E
