&title=ハート111
&artist=ゆーり
&first=0.559
&lv_5=13+
&des=公公の羊
&inote_5=
(129){4}6h[8:1]/7h[16:1],8h[16:1]/5h[8:1],1h[16:1]/4h[8:1],2h[16:1]/3h[8:1],
2/3-6[8:1],3/2-7[8:1],2/3-6[8:1],2/3,
5b/4b,{8}4/5,{16}6,4,{8}7,4,{16}8,4,{8},{4}4/5,
{8}5/4,{16}3,5,{8}2,5,{16}1,5,{8},{4}5/4,
{8}4/5,{16}5,4,{8}5,4,{16}5,4,{8},{4}4/5,
7h[8:1]/2h[8:1],{8}5-7[16:1]/4-2[16:1],3/6,{4}5/4,
{8}5b/4b,{4},{8}3/6,3/6,7,5/4,6,
5/4,{4},{8}6/3,6/3,2,4/5,3,
4/5,{4},{8}7/4,6/5,7/4,8/3,7/2,
{4}2<7[8:1]/7>2[8:1],7-2[8:1]/2-7[8:1],2v3b[8:1]/7v6b[8:1],2/7,
4qq4[4:1],{8}7/4pp4[4:1],8,7,8,7-2[8:1],8,
7,4,3,6/2,5/3,4h[4:1],{4},5b/4b,
{8}8/2q6[8:1],3,2/8p4[8:1],7,8/3p7[8:1],2,
{4}3/6,{8}5pp5[4:1],2,5qq5[4:1],1bh[8:3],{2},{8}7/4qq4[4:1],
8,7/4pp4[4:1],8,7-2[8:1],8,
7,4,3,6/2,3/5,4h[8:1],{4},5b/4b,
{8}1-5[8:1],1h[16:1],7-3[8:1],7h[16:1],4-8[8:1],4h[16:1],
7,6,5h[8:1],8,1,{32}1bx,2bx,{16}3bx,{32}7bx,6bx,{16}5bx,{32}2bx,3bx,{16}4bx,
{4}B6/E7/D7/A6/E6/D6,{8}5/3,B6/E7/B7/B2/B3/E3,7/4,B2/B3/E3/B7/E7/B6,6pp4[4:1]/3qq5[4:1],2/7,
{2}E3f/E7f/B7/B6/B2/B3,{8}6h[4:1],4h[8:1],{4},5b/4b,
{8}6/2h[8:1],4,3/7h[8:1],5,6/2h[8:1],4,
7h[8:1],4h[8:1],6h[8:1],5,{4}8<6[8:1]/3<5[8:1],8/3,
5b/4b,{8}4/7,B3/E3/B2/B7/B6/E7,3/5,B7/B6/E7/B2/E3/B3,3qq5[4:1]/6pp4[4:1],2/7,
{2}E3f/E7f/B2/B3/B7/B6,{8}3bh[4:1],5bh[8:1],{4},5b/4b,
{8}7-3[8:1],7h[16:1],1-4[8:1],1h[16:1],5-8[8:1],5h[16:1],
2,3,4h[8:1],1,8,{32}8bx,7bx,{16}6bx,{32}2bx,3bx,{16}4bx,{32}7bx,6bx,{16}5bx,
{1}4b>4[2:3],
{8}B1,B2,E3,B3,{2}B4,
{4}5b<5[2:3],B5,B6,B7,
B8,8h[8:1],{2}7h[8:1],
{4}5b/4b,E7/Ch[2:3],E7,E7,
{8}E7,E8,B7,B6,E6,B6/E6/B5,{4},5b/4b,
E3/Ch[2:3],E3,E3,
E3,E3,{2}E3f,
{8}5b/4b,{16}3,6,{8},3,{16}4,2,{8},{32}2x,1x,2x,1x,{16}3x,3x,
8,7,6,2,{8},3,{16}4,5,{32}4x,6x,4x,7x,{8},3,
{16}5b/4b,{8},{16}6,{8}4,2,{16}7,3,{8},{32}7x,3x,7x,4x,{16}7x,7x,
,6,2,3,{4}5/4,{16}5,5,{32}4,6,{16}3,7h[4:1],2bx,2bx,2bx,
,,,1,{8}8,2,{16}8,1,{8},{32}1x,8x,1x,8x,{16}1x,1x,
,7,,8,{8},{16}2,3,,5,{32}4x,4x,{16}4x,{8}5,6,
{16}5b/4b,{8},{16}3h[16:3]/5h[16:5],{4},{16}4,2,{8},{32}1x,2x,3x,4x,{16}5x,7b,
,5,,8,{8},4,{16}3,2,{32}8x,7x,{16}6x,2,1bx,1bx,1bx,
{4}5b,{8}5/6,7/8,{4}4/3,{8}4/3,1/2,
6/5,7/8,4/3,1/2,{4}6/5,{8}5q4[8:1]/4p5[8:1],6/3,
{4}5/4,{8}3/6,7/2,{4}8/1,{8}8/1,{16}2,7,
{8}6/3,5/2,6/3,7/4,6/3,2v3[8:1]/7v6[8:1],5b/4b,7/2,
{4},{8}4/5,2/3,{4}2/3,{8}1/2,1/2,
1/2,1/2,7/8,7/8,{4}6/5,{8}2/1,3/4,
{4}6/5,{8}4/3,2/1,{4}7/8,{8}4/3,1/2,
8/7,6/5,{32}4/3,2,1,8,7,6,5,4,3,2,1,8,7,6,5,4,3,2,{16}1,{8},{4}4b/5pp5[4:1],
{8}2/5qq5[4:1],1,2,1,2-7[8:1],1,
2,5,6,3/7,4/6,5h[4:1],4,3,
{4}4b/5b,{8}1/8-4[8:1],7,8/2-5[8:1],3,2/6-1[8:1],7,
{4}6/3,{8}4qq4[4:1],7,4pp4[4:1],8bh[8:3],{4}A4f,
,{8}2/5pp5[4:1],1,2/5qq5[4:1],1,2-7[8:1],1,
2,5,6,3/7,6/4,5h[8:1],{4},4b/5b,
{8}7-3[8:1],7h[16:1],1-5[8:1],1h[16:1],4-8[8:1],4h[16:1],
2,3,4h[8:1],1,8,{32}8bx,7bx,{16}6bx,{32}2bx,3bx,{16}4bx,{32}7bx,6bx,{16}5bx,
E
