&title=ANDORXOR
&artist=sobrem
&first=-0.02
&lv_5=13+
&des=Cryst
&inote_5=
(147.9){4},,,,3,
3h[4:3],{2}E4,
{4}5,5h[4:3],{2}E5,
{4}4,4h[4:3],{2}E5,
{4}6,6h[4:3],{2}E6,
{4}4,4h[4:3],{2}E5,
{4}5,5qq8[2:1],,,1x,
{16}1,3,2,4,3,5,4,6,5,7,6,8,
{4}C,B6/B3/A6/A3,1/8,{16}2<7[8:1],4,3,5,
{4}2b,{16}6,5,6,5,{4}6,{16}3,4,3,4,
{4}3,{16}7,5,6,5,{4}7,{16}2<7[8:1],4,3,4,
{4}2b,{16}6,5,6,5,{4}6,{16}3,4,3,4,
{4}3,{16}6,5,7,5,{4}8-4[8:1],8,
6b/2b,{16}7,5,6,4,5,4,6,5,7,5,6,4,
{4}5,{16}4,5,3,4,2,4,3,5,4z8[8:1],6,3,5,
{4}4b,{16}7,6,5,4,1,2,3,4,8,7,6,5,
2,3,4,5,8,7,6,5,B3,B4,B6,B5,E2,B2,E8,B7,
{4}5b,{16}4/2,3,,,5/7,6,,,1/3,2,,,{4}8q5[8:1],
{16}2,,,7,{4}7>6[4:1],7,
1b,{16}6,5/7,,,3,4/2,,,7,6/8,,,{4}1p4[8:1],
{16}7,,,2,{4}2<3[4:1],2,
8b,{16}5/6,7,,,4/3,2,,,8/1,2/7,,,{4}7/2,
{16}3/4,,,7/2,{4}7/2,5/6,
{16}3x,4,2,5,1x,6,8,7,1x,6,3,8,4x,1,5,5,
{48}B5,C,{24}B1,,,,,,,,,,,{4}Cfh[2:1],1-5[12:1],
1b,{48}B1,B8/B2,B7/B3,B6/B4,{6}B5,8xh[16:1]/C,{48},{16}7h[16:1]/B1,,,{8}6h[16:1]/B8,
{16},5h[16:1]/B7,,,{8}2/4h[16:1],5/3h[16:1],{4}2xqq1[8:1],8-4[8:1],
8bp3[8:1],8/4,{16}5xh[16:1]/C,,,6h[16:1]/B4,,,{8}7h[16:1]/B5,
{16},8h[16:1]/B6,,,{4}1>7[8:3],{8}8x,1,2,3,
{48}4b,B4,C,B8,,,,,,,,,A7/A1,E7/E2,E6/E3,A5/A3,,,,,,,,,{16}4x/8xh[16:1],,,7h[16:1]/B3,,,{8}2/6h[16:1],
{16},5h[16:1]/B1,{48},,,,,,{12}4,3,2,{8}8x,{24}6,5,6,{8}5-1[8:1],3,
{4}5b,{48}D2,,,,,E3,,,,,{24}E4,{16}5x,,,6h[16:1]/E1,,,{8}3h[16:1]/E5,
{16},2v3[8:1],,,{8}5,5,{4}4xh[8:1],{24}4x,4x,4x,4xpp5[16:3]*p4[16:3],4x,4x,
{2}4x,{16}5x,3b,,6b,,1b/C,,2,
3,4b/8b,,6b,,1b/C,,2,{24}3x/A7,A8,A1,A2,A3,A4,{12}1,1,1,
{2}2/8z4[8:1],{16}2x,3,8,7,3,4,7,6,
4h,5h,6h,5h,5,5,5,5,5x,,,B4,{8}B3,{16}B6,B7,
{2}Ch[4:1]/1b>4[8:1],{16}6x,B8,5,E3,6,C,5,B3,
6,B8,5,E3,6,C,5,B3,{4}7xh[8:1],5h[8:1]/4h[16:3],
{8}8bv6[8:1],{16},,,,2,3,4x,6b,,3b,,8b/C,,7,
{24}B1,B2,E3,B8,B7,E7,B2,B3,E4,B7,B6,E6,A1,A8,A2,A7,A3,A6,E2,E8,E3,E7,E4,E6,
{2}Cfh[2:1],{16}8x,8h[16:3],,,6,6h[16:3],,,4,
4h[16:3],,,2,2h[16:3],{48},,,,,,{12}7x,6,5,6,5,4V25[24:5],
{2}Cfh[2:1],{16}4x,4h[16:3],,,2,2h[16:3],,,8,
8h[16:3],,,6,6h[16:3],{32},,,,1xq4[2:1],2,3,4,A5,A6,A7,A8f,{4},,,{32}7x,
5,{16}7,{32},,,,3,4,{16}3,{32},,,,6,
5,{16}6,{32},,,,2,3,{16}2,,,{4}8xv6[8:1]*-5[8:1],E8,
1b-5[3:1]*-5[3:1],{96}A6,,,,,A3,,,,,{48}A7,{96},,,{32}A2,{96},,{24}A8,{2}1bx,
{4}8b-4[3:1]*-4[3:1],{24}A5,A6,A7,A1,A2,A3,{2}8bx,
Cfh[2:1],{16}1x-5[12:1],1,,,7-4[12:1],7,,,3qq2[8:1],
3,,,5,5h[16:3],,,3x,5b,,2b,,8b/C,{32},,7,6,
{12}5,1b,2b,3b,4b,5b,{16}6x-1[12:1],6,,,2-5[12:1],2,,,8qq7[8:1],
8,,,4,4h[16:3],{32},,,,1xs5[2:1],8,7,6,A5,A4,A3,A2f,,,,,,,,,{2}Cfh[2:1],
{16}8x<5[8:1],,,B6,{32},,,B4,,,,,{8}C/5<8[8:1],
B2,{16}5,A1,{32},,,,8x/C,,,,,7,,,,,{16}6,{32},,,,3,
4h[32:7],,,,,,,,,,,,,,,{4}C,{8}5,{16}6,4,
{32}6,5h[32:7],,,,,,,,,,,,,,,{2}C,
{4}8x,{16}8,6,7,5,6,4,5,3,4,2,3,1,
{4}C,B3/B6/A3/A6,8/1,{16}6,5,6,4,
{8}5h[1:2],{16},,,,B3,B2,{2}E2,
B7/B8,{4}E4,B2,
{8}1h[1:2],{16},,,,B7,B6,{2}E6,
{4}B3,E5,{2}B7/B6,
{8}7h[1:2],{16},,,,B5,B4,{2}E4,
{8}E8,E1,E2,E3,{4}E4,C,
{2}3h[1:2],Ch[4:1],
{16}E1,E8,E7,E6,E5,E4,E3,E2,{2}E1,
{4}5b,{8}7/8-4[8:1],1,{4}8/2,3/4h[4:1],
{16}7,,,6,{8}8-4[8:1],1,{4}2/8,6/3,
4b/2b,{8}2/1-5[8:1],8,{4}1/7,6/5h[4:1],
{16}2,,,3,{8}1,8,{16}5,6,5,7,4,5,4,6,
{4}1b,{16}8h[16:3],,,7h[16:3],,,{8}6h[16:3],{16},5h[16:3],,,{8}4h[16:3],
{16}3,3h[16:3],,2,{8}2h[16:3],{16}1,1h[16:3],,8,{8}8,7/2,
{20}1,8,1,8,1,8,1,8,1,8,1,8,1,8,1,8,1,8,1,8,
1,8,1,8,1,8,1,8,1,8,1,8,1,8,1,8,1,8,1,8,
{1}Cfh[1:2],
{4},,,8-4[8:1],
8b,{24}2,1,8,7,6,5,{16}4xh[16:1]/C,B8,,3h[16:1]/B7,{8}E7,{16}2h[16:1]/B6,E6,
,1h[16:1]/B5,{8}E5,{12}8,7,6,{4}B4/B3/5xpp6[8:1],3-8[8:1],
3b,{16}6,5,6,5,{4}7b,{16}3,4,3,4,
{4}1b<6[8:1]*>4[8:1],1b,{2}Cfh[2:1],
{16}8b,7,6,5,{96}3b,,,,,3b,,,,,{48}4b,{96},,,{32}4b,{96},,{24}1b,{4}1bx-7[12:1],{48}1/6,B6,C,B2,,,,,,,,,{16}1b,
2,3,4,{96}6,,,,,6,,,,,{48}5,{96},,,{32}5,{96},,{24}8,{2}8bx-4[8:1],
{16}2,4,,7,{4}5h[4:1],{16}1bx-5[12:1],2,,,7b-4[12:1],6,,,3bqq2[8:1],
2,,,6b,5h[16:3],,,3x,5b,,2b,,8b/C,{32},,7,6,
{12}5,1b,2b,3b,4b,{24}5b,4,{16}6bx-1[12:1],7,,,2b-5[12:1],3,,,8bqq7[8:1],
7,,,3b,4h[16:3],{32},,,,1x-5[4:1],8,7,6,A5,A4,A3,A2f,,,,,,,,,,,{16}4,
3,6,7,3,2,7,8,2h,1h,8h,1h,1,1,1,
1bq5[12:1],2,,,7b<4[12:1],6,,,{8}3x,2,1/6-1[8:1],{16}7,4,
{4}6b,{16}3,4,4,4,{4}1b,{16}7,5,5,5,
{8}8b<5[8:1],1,4b>1[8:1],3,8b-4[8:1],7b-3[8:1],8b,7b,
{24}2,1,8,7,6,5,2,1,8,7,6,5,{2}C,
{4}5,5h[4:3],{2}E5,
{4}4,4h[4:3],{2}E5,
{4}6,6h[4:3],{2}E6,
{16},,,,,,,,,C,
E
